<?xml version="1.0" standalone="no"?>
<!DOCTYPE svg PUBLIC "-//W3C//DTD SVG 1.1//EN" "http://www.w3.org/Graphics/SVG/1.1/DTD/svg11.dtd" >
<svg xmlns="http://www.w3.org/2000/svg" xmlns:xlink="http://www.w3.org/1999/xlink" version="1.1">
<metadata>
Created by FontForge 20170731 at Wed Mar  9 15:36:53 2022
 By Aleksey,,,
Copyright (C) 2001, 2008 Hoefler &#38; Frere-Jones. http://www.typography.com
</metadata>
<defs>
<font id="GothamNarrow-Black" horiz-adv-x="1024" >
  <font-face 
    font-family="Gotham Narrow Black"
    font-weight="450"
    font-stretch="condensed"
    units-per-em="2048"
    panose-1="0 0 0 0 0 0 0 0 0 0"
    ascent="1638"
    descent="-410"
    x-height="1108"
    cap-height="1434"
    bbox="-109 -584 2296 2073"
    underline-thickness="102"
    underline-position="-307"
    unicode-range="U+0020-FB04"
  />
<missing-glyph 
d="M0 -410v2048h1024v-2048h-1024zM145 1536l367 -799l367 799h-734zM102 -156l353 770l-353 770v-1540zM922 1384l-353 -770l353 -770v1540zM512 492l-367 -799h734z" />
    <glyph glyph-name="f_f" unicode="ff" horiz-adv-x="1456" 
d="M145 0v819h-108v285h108v33q0 177 88 268q91 88 269 88q122 0 213 -25v-260q-66 15 -113 15q-102 0 -102 -99v-24h215v-281h-209v-819h-361zM874 0v819h-108v281h108v37q0 179 89 268q91 88 268 88q122 0 213 -25v-260q-66 15 -113 15q-102 0 -102 -99v-24h215v-281h-209
v-819h-361z" />
    <glyph glyph-name="fi" unicode="fi" horiz-adv-x="1280" 
d="M145 0v819h-108v285h108v33q0 177 88 268q91 88 269 88q122 0 213 -25v-260q-66 15 -113 15q-102 0 -102 -99v-24h215v-281h-209v-819h-361zM825 0v1108h361v-1108h-361zM819 1202v281h373v-281h-373z" />
    <glyph glyph-name="fl" unicode="fl" horiz-adv-x="1280" 
d="M145 0v819h-108v285h108v33q0 177 88 268q91 88 269 88q122 0 213 -25v-260q-66 15 -113 15q-102 0 -102 -99v-24h215v-281h-209v-819h-361zM825 0v1483h361v-1483h-361z" />
    <glyph glyph-name="f_f_i" unicode="ffi" horiz-adv-x="2009" 
d="M145 0v819h-108v285h108v33q0 177 88 268q91 88 269 88q122 0 213 -25v-260q-66 15 -113 15q-102 0 -102 -99v-24h215v-281h-209v-819h-361zM874 0v819h-108v281h108v37q0 179 89 268q91 88 268 88q122 0 213 -25v-260q-66 15 -113 15q-102 0 -102 -99v-24h215v-281h-209
v-819h-361zM1552 0v1108h361v-1108h-361zM1546 1202v281h373v-281h-373z" />
    <glyph glyph-name="f_f_l" unicode="ffl" horiz-adv-x="2009" 
d="M145 0v819h-108v285h108v33q0 177 88 268q91 88 269 88q122 0 213 -25v-260q-66 15 -113 15q-102 0 -102 -99v-24h215v-281h-209v-819h-361zM874 0v819h-108v281h108v37q0 179 89 268q91 88 268 88q122 0 213 -25v-260q-66 15 -113 15q-102 0 -102 -99v-24h215v-281h-209
v-819h-361zM1552 0v1483h361v-1483h-361z" />
    <glyph glyph-name=".notdef" 
d="M0 -410v2048h1024v-2048h-1024zM145 1536l367 -799l367 799h-734zM102 -156l353 770l-353 770v-1540zM922 1384l-353 -770l353 -770v1540zM512 492l-367 -799h734z" />
    <glyph glyph-name=".null" horiz-adv-x="0" 
 />
    <glyph glyph-name="nonmarkingreturn" horiz-adv-x="682" 
 />
    <glyph glyph-name="space" unicode=" " horiz-adv-x="487" 
 />
    <glyph glyph-name="exclam" unicode="!" horiz-adv-x="604" 
d="M209 465l-117 840v129h420v-129l-117 -840h-186zM111 0v342h383v-342h-383z" />
    <glyph glyph-name="quotedbl" unicode="&#x22;" horiz-adv-x="985" 
d="M541 725l30 709h377v-13l-231 -696h-176zM70 725l30 709h377v-13l-231 -696h-176z" />
    <glyph glyph-name="numbersign" unicode="#" horiz-adv-x="1257" 
d="M1149 596v-311h-211l-43 -285h-264l41 285h-219l-41 -285h-267l43 285h-139v311h187l36 250h-163v311h210l41 277h265l-41 -277h219l41 277h266l-41 -277h139v-311h-186l-37 -250h164zM530 856l-41 -270h236l41 270h-236z" />
    <glyph glyph-name="dollar" unicode="$" horiz-adv-x="1177" 
d="M1102 1274l-166 -264q-75 58 -165.5 94.5t-172.5 36.5h-12q-74 0 -111 -29t-37 -74v-2q0 -51 48 -82.5t188 -76.5q235 -77 342.5 -178.5t107.5 -272.5v-4q0 -170 -111.5 -281.5t-297.5 -138.5v-209h-213v209q-129 14 -252.5 64t-220.5 131l174 262q212 -161 409 -164h11
q159 0 159 104v4q0 48 -48 81t-177 71q-243 81 -353 181t-110 272v6q0 169 109.5 281t300.5 137v131h213v-133q212 -26 385 -156z" />
    <glyph glyph-name="percent" unicode="%" horiz-adv-x="1634" 
d="M389 672q-145 0 -236.5 107t-91.5 274v16q0 168 91.5 275.5t238.5 107.5t237.5 -107t90.5 -276v-14q0 -168 -91.5 -275.5t-238.5 -107.5zM389 1241q-46 0 -72 -46t-26 -126v-14q0 -79 27.5 -126.5t72.5 -47.5q46 0 72 46t26 128v12q0 81 -27 127.5t-73 46.5zM735 760
l447 674h241l-526 -766l-444 -668h-242zM1243 -18q-146 0 -237 107.5t-91 275.5v14q0 169 91 276t239 107q147 0 237.5 -107t90.5 -274v-16q0 -167 -91.5 -275t-238.5 -108zM1245 193q45 0 71.5 46.5t26.5 125.5v14q0 80 -27 127t-73 47q-47 0 -73.5 -46t-26.5 -128v-12
q0 -81 28 -127.5t74 -46.5z" />
    <glyph glyph-name="ampersand" unicode="&#x26;" horiz-adv-x="1282" 
d="M1004 -29l-121 135q-167 -129 -375 -129q-206 0 -338.5 110t-132.5 298v6q0 262 266 402q-102 150 -102 290v7q0 156 114 263t299 107q179 0 286.5 -100t107.5 -256v-6q0 -237 -256 -375l145 -174q34 57 102 209l250 -105q-68 -186 -159 -323l165 -187zM584 903
q129 72 129 182v2q0 51 -27.5 82t-71.5 31q-45 0 -73.5 -34t-28.5 -87v-2q0 -77 72 -174zM555 258q76 0 147 55l-215 260q-88 -65 -88 -161v-4q0 -67 43.5 -108.5t112.5 -41.5z" />
    <glyph glyph-name="quotesingle" unicode="'" horiz-adv-x="518" 
d="M70 725l30 709h383v-13l-233 -696h-180z" />
    <glyph glyph-name="parenleft" unicode="(" horiz-adv-x="813" 
d="M633 -287q-272 130 -412.5 342t-140.5 525v16q0 313 140.5 524.5t412.5 341.5l137 -227q-183 -119 -261.5 -275.5t-78.5 -371.5v-2q0 -214 78.5 -370.5t261.5 -274.5z" />
    <glyph glyph-name="parenright" unicode=")" horiz-adv-x="813" 
d="M180 -287l-137 228q183 118 261.5 274.5t78.5 370.5v2q0 215 -78.5 371.5t-261.5 275.5l137 227q271 -130 412 -342t141 -524v-16q0 -312 -141 -524.5t-412 -342.5z" />
    <glyph glyph-name="asterisk" unicode="*" horiz-adv-x="800" 
d="M295 727l51 260l-192 -174l-107 184l246 84l-246 84l107 187l192 -174l-51 260h211l-51 -260l192 174l109 -187l-248 -84l248 -84l-109 -184l-192 174l51 -260h-211z" />
    <glyph glyph-name="plus" unicode="+" horiz-adv-x="1163" 
d="M418 231v330h-324v320h324v327h330v-327h321v-320h-321v-330h-330z" />
    <glyph glyph-name="comma" unicode="," horiz-adv-x="538" 
d="M68 -328l-31 142q102 15 152 64t47 124h-156v379h379v-309q0 -198 -101 -292.5t-290 -107.5z" />
    <glyph glyph-name="hyphen" unicode="-" horiz-adv-x="782" 
d="M74 477v326h635v-326h-635z" />
    <glyph glyph-name="period" unicode="." horiz-adv-x="538" 
d="M80 0v377h379v-377h-379z" />
    <glyph glyph-name="slash" unicode="/" horiz-adv-x="956" 
d="M-63 -244l772 1860h286l-772 -1860h-286z" />
    <glyph glyph-name="zero" unicode="0" horiz-adv-x="1310" 
d="M653 -27q-178 0 -311 92.5t-202.5 256.5t-69.5 378v31q0 213 70.5 377.5t204.5 258t312 93.5q177 0 310 -92.5t203.5 -257t70.5 -377.5v-31q0 -212 -71 -377t-205 -258.5t-312 -93.5zM657 303q99 0 156 103t57 294v29q0 192 -59 296.5t-158 104.5t-156 -102t-57 -295v-28
q0 -193 58.5 -297.5t158.5 -104.5z" />
    <glyph glyph-name="one" unicode="1" horiz-adv-x="768" 
d="M285 0v1085l-213 -53l-52 305l363 105h266v-1442h-364z" />
    <glyph glyph-name="two" unicode="2" horiz-adv-x="1120" 
d="M61 0v289l459 438q91 91 126.5 146.5t35.5 115.5q0 62 -39.5 99.5t-105.5 37.5q-63 0 -122.5 -38.5t-140.5 -124.5l-219 235q113 132 235.5 196t284.5 64q211 0 343.5 -118t132.5 -312v-4q0 -94 -32.5 -174t-88.5 -147t-158 -162l-240 -226h523v-315h-994z" />
    <glyph glyph-name="three" unicode="3" horiz-adv-x="1110" 
d="M537 -27q-312 0 -512 197l196 258q133 -129 291 -129q82 0 130 41.5t48 110.5v4q0 76 -66 117.5t-192 41.5h-106l-39 207l301 299h-479v314h919v-281l-319 -305q74 -18 133.5 -48.5t107.5 -77.5t74.5 -116.5t26.5 -156.5v-5q0 -215 -143 -343t-371 -128z" />
    <glyph glyph-name="four" unicode="4" horiz-adv-x="1243" 
d="M682 0v268h-610l-45 260l639 914h368v-887h162v-287h-162v-268h-352zM393 553h291v424z" />
    <glyph glyph-name="five" unicode="5" horiz-adv-x="1126" 
d="M524 -27q-279 0 -491 183l182 270q159 -127 297 -127q90 0 141.5 47t51.5 127v4q0 78 -53.5 124t-139.5 46q-95 0 -190 -57l-207 117l41 727h850v-318h-564l-12 -219q93 35 186 35q90 0 169 -27t142.5 -79.5t100.5 -140t37 -200.5v-6q0 -156 -70 -272t-192 -175t-279 -59
z" />
    <glyph glyph-name="six" unicode="6" horiz-adv-x="1200" 
d="M616 -27q-232 0 -374 142q-172 172 -172 557v8q0 370 158.5 575t449.5 205q117 0 212.5 -31t190.5 -96l-153 -276q-121 90 -242 90q-64 0 -113 -27t-77 -72.5t-43 -96t-19 -107.5q125 92 271 92q85 0 160 -28t135 -81.5t95 -140t35 -194.5v-7q0 -154 -69.5 -272
t-186 -179t-258.5 -61zM606 266q80 0 125 54t45 143v4q0 89 -46.5 143t-127.5 54q-78 0 -123 -53.5t-45 -141.5v-4q0 -89 46 -144t126 -55z" />
    <glyph glyph-name="seven" unicode="7" horiz-adv-x="1097" 
d="M119 0l528 1108h-573v326h973v-269l-533 -1165h-395z" />
    <glyph glyph-name="eight" unicode="8" horiz-adv-x="1157" 
d="M578 -25q-234 0 -381.5 114.5t-147.5 301.5v8q0 236 221 344q-182 112 -182 314v6q0 172 137 283.5t355 111.5q217 0 353 -111t136 -284v-6q0 -202 -182 -314q221 -113 221 -342v-8q0 -189 -147.5 -303.5t-382.5 -114.5zM580 854q68 0 109.5 45.5t41.5 120.5v2
q0 71 -42 115.5t-109 44.5q-69 0 -111.5 -44t-42.5 -116v-2q0 -75 42.5 -120.5t111.5 -45.5zM580 256q81 0 128.5 47.5t47.5 124.5v4q0 78 -49 125t-127 47q-79 0 -128 -46.5t-49 -125.5v-4q0 -78 47.5 -125t129.5 -47z" />
    <glyph glyph-name="nine" unicode="9" horiz-adv-x="1198" 
d="M514 287q64 0 113 25.5t76.5 69.5t42 92t18.5 104q-118 -95 -266 -95q-88 0 -165 29t-136 84t-93 142t-34 196v8q0 156 68 275t183.5 181t260.5 62q126 0 216 -35t163 -108q169 -169 169 -557v-6q0 -376 -160.5 -578.5t-447.5 -202.5q-122 0 -223.5 35t-202.5 105
l154 272q133 -98 264 -98zM596 756q80 0 125 54.5t45 145.5v5q0 94 -46 150t-128 56q-79 0 -123.5 -55.5t-44.5 -148.5v-5q0 -93 46.5 -147.5t125.5 -54.5z" />
    <glyph glyph-name="colon" unicode=":" horiz-adv-x="555" 
d="M88 731v377h379v-377h-379zM88 0v377h379v-377h-379z" />
    <glyph glyph-name="semicolon" unicode=";" horiz-adv-x="555" 
d="M88 731v377h379v-377h-379zM76 -330l-31 140q102 15 152 65t47 125h-156v377h379v-307q0 -199 -101.5 -294t-289.5 -106z" />
    <glyph glyph-name="less" unicode="&#x3c;" horiz-adv-x="1163" 
d="M1028 156l-922 399v330l922 401v-348l-588 -217l588 -215v-350z" />
    <glyph glyph-name="equal" unicode="=" horiz-adv-x="1163" 
d="M104 817v320h955v-320h-955zM104 305v320h955v-320h-955z" />
    <glyph glyph-name="greater" unicode="&#x3e;" horiz-adv-x="1163" 
d="M135 156v348l590 215l-590 215v352l922 -401v-330z" />
    <glyph glyph-name="question" unicode="?" horiz-adv-x="987" 
d="M334 465l-45 350l12 14q287 35 287 175v4q0 53 -38.5 83.5t-105.5 30.5q-126 0 -264 -118l-172 266q204 182 465 182q214 0 344.5 -113t130.5 -301v-2q0 -88 -26.5 -157.5t-76 -118t-111.5 -80.5t-142 -55l-27 -160h-231zM254 0v342h383v-342h-383z" />
    <glyph glyph-name="at" unicode="@" horiz-adv-x="1759" 
d="M881 -315q-172 0 -320.5 62.5t-255 172t-167 266t-60.5 338.5q0 149 39.5 289.5t114.5 257t176.5 204t232 136.5t274.5 49q162 0 306 -61t244 -163t158 -237.5t58 -281.5q0 -272 -118.5 -436t-292.5 -164q-207 0 -279 162q-115 -156 -272 -156q-137 0 -226.5 98.5
t-89.5 267.5q0 152 56.5 285t152 212t203.5 79q157 0 236 -147l22 122l287 -45l-96 -549q-9 -50 -9 -98t28.5 -77t78.5 -29q96 0 163.5 133t67.5 344q0 131 -50 250.5t-138 209.5t-217 143.5t-277 53.5q-129 0 -245.5 -44.5t-206.5 -124.5t-156.5 -186.5t-101.5 -235
t-35 -265.5q-1 -218 89.5 -389.5t255 -267.5t374.5 -96q233 0 438 120l41 -67q-222 -135 -483 -135zM819 367q54 0 99 45q36 36 59.5 115t23.5 147q0 66 -32.5 102.5t-83.5 36.5q-56 0 -101 -45q-37 -38 -60.5 -115.5t-23.5 -144.5q0 -69 32.5 -105t86.5 -36z" />
    <glyph glyph-name="A" unicode="A" horiz-adv-x="1396" 
d="M8 0l504 1442h373l506 -1442h-387l-84 258h-451l-82 -258h-379zM561 553h266l-133 420z" />
    <glyph glyph-name="B" unicode="B" horiz-adv-x="1277" 
d="M106 0v1434h594q266 0 390 -127q94 -91 94 -238v-8q0 -116 -58 -194.5t-155 -121.5q126 -46 194 -126t68 -213v-9q0 -186 -139.5 -291.5t-391.5 -105.5h-596zM819 991v2q0 64 -44.5 98.5t-127.5 34.5h-182v-268h176q86 0 132 34t46 99zM864 449q0 64 -47.5 101.5
t-136.5 37.5h-215v-281h217q86 0 134 36.5t48 102.5v3z" />
    <glyph glyph-name="C" unicode="C" horiz-adv-x="1263" 
d="M717 -25q-137 0 -256.5 51.5t-207 144t-137.5 230t-50 301.5v25q0 163 51 300.5t140 231.5t211.5 146.5t262.5 52.5q304 0 496 -225l-238 -252q-111 135 -252 135q-129 0 -211 -106.5t-82 -286.5v-8q0 -187 82 -292.5t211 -105.5q84 0 143.5 37t118.5 105l234 -238
q-201 -246 -516 -246z" />
    <glyph glyph-name="D" unicode="D" horiz-adv-x="1366" 
d="M106 0v1434h472q341 0 531.5 -190t190.5 -511v-24q0 -322 -193 -515.5t-536 -193.5h-465zM582 1104h-107v-774h107q159 0 250.5 95t91.5 282v18q0 188 -91.5 283.5t-250.5 95.5z" />
    <glyph glyph-name="E" unicode="E" horiz-adv-x="1167" 
d="M106 0v1434h988v-324h-623v-236h561v-305h-561v-245h631v-324h-996z" />
    <glyph glyph-name="F" unicode="F" horiz-adv-x="1128" 
d="M106 0v1434h975v-332h-606v-254h545v-318h-545v-530h-369z" />
    <glyph glyph-name="G" unicode="G" horiz-adv-x="1359" 
d="M754 -25q-146 0 -272.5 50.5t-218.5 143t-144.5 229.5t-52.5 302v29q0 211 90 378t247 259t353 92q149 0 267 -43t226 -131l-205 -280q-64 57 -129 87.5t-151 30.5q-138 0 -230 -110.5t-92 -286.5v-20q0 -191 91.5 -299.5t234.5 -108.5q101 0 166 43v213h-227v285h573
v-684q-242 -179 -526 -179z" />
    <glyph glyph-name="H" unicode="H" horiz-adv-x="1357" 
d="M106 0v1434h369v-545h408v545h370v-1434h-370v553h-408v-553h-369z" />
    <glyph glyph-name="I" unicode="I" horiz-adv-x="595" 
d="M113 0v1434h368v-1434h-368z" />
    <glyph glyph-name="J" unicode="J" horiz-adv-x="995" 
d="M424 -23q-263 0 -420 189l207 250q88 -105 182 -105q66 0 105 46.5t39 134.5v942h366v-955q0 -245 -131 -373q-126 -129 -348 -129z" />
    <glyph glyph-name="K" unicode="K" horiz-adv-x="1302" 
d="M106 0v1434h369v-568l395 568h424l-444 -611l459 -823h-430l-289 522l-115 -149v-373h-369z" />
    <glyph glyph-name="L" unicode="L" horiz-adv-x="1077" 
d="M106 0v1434h369v-1102h563v-332h-932z" />
    <glyph glyph-name="M" unicode="M" horiz-adv-x="1552" 
d="M106 0v1434h379l291 -529l289 529h381v-1434h-365v807l-305 -533h-6l-305 529v-803h-359z" />
    <glyph glyph-name="N" unicode="N" horiz-adv-x="1396" 
d="M106 0v1434h347l477 -721v721h362v-1434h-327l-496 752v-752h-363z" />
    <glyph glyph-name="O" unicode="O" horiz-adv-x="1460" 
d="M729 -27q-192 0 -343 91.5t-235.5 257.5t-84.5 378v31q0 211 85.5 377.5t237.5 259t342 92.5q291 0 477.5 -203t186.5 -524v-31q0 -211 -86 -377.5t-237.5 -259t-342.5 -92.5zM731 307q130 0 208.5 107t78.5 291v22q0 184 -80 291.5t-209 107.5t-208 -106.5t-79 -290.5
v-22q0 -184 80 -292t209 -108z" />
    <glyph glyph-name="P" unicode="P" horiz-adv-x="1210" 
d="M106 0v1434h512q258 0 409 -130t151 -368v-8q0 -126 -44 -224t-121 -160t-178.5 -94t-220.5 -34h-141v-416h-367zM473 717h129q97 0 152 52.5t55 143.5v7q0 97 -54 147.5t-155 50.5h-127v-401z" />
    <glyph glyph-name="Q" unicode="Q" horiz-adv-x="1464" 
d="M1423 158l-198 -197l-125 125q-163 -113 -371 -113q-191 0 -342 92t-236 258t-85 377v31q0 211 85.5 377.5t237.5 259t342 92.5q291 0 477.5 -203t186.5 -524v-31q0 -229 -109 -413zM735 299q65 0 117 27l-172 161l199 197l127 -123q14 72 14 139v25q0 185 -80 293
t-211 108q-129 0 -208 -107.5t-79 -291.5v-25q0 -188 80.5 -295.5t212.5 -107.5z" />
    <glyph glyph-name="R" unicode="R" horiz-adv-x="1284" 
d="M106 0v1434h564q287 0 430 -146q125 -125 125 -336v-10q0 -294 -256 -422l295 -520h-416l-244 444h-131v-444h-367zM473 737h182q93 0 146 50t53 137v4q0 90 -53.5 137t-147.5 47h-180v-375z" />
    <glyph glyph-name="S" unicode="S" horiz-adv-x="1159" 
d="M586 -20q-341 0 -584 210l197 269q197 -162 389 -162q72 0 110.5 28.5t38.5 75.5v2q0 44 -44 76.5t-167 75.5q-90 31 -152.5 57.5t-125 65.5t-99.5 83.5t-60 106.5t-23 138v6q0 197 139.5 319.5t372.5 122.5q296 0 512 -174l-187 -274q-169 131 -334 131q-61 0 -96 -27
t-35 -68v-2q0 -47 45.5 -79.5t182.5 -83.5q109 -35 185 -72.5t137 -89.5t90.5 -122t29.5 -159v-4q0 -207 -144.5 -328.5t-377.5 -121.5z" />
    <glyph glyph-name="T" unicode="T" horiz-adv-x="1159" 
d="M395 0v1102h-354v332h1077v-332h-354v-1102h-369z" />
    <glyph glyph-name="U" unicode="U" horiz-adv-x="1349" 
d="M672 -25q-272 0 -426 147.5t-154 444.5v867h371v-871q0 -126 56.5 -190t154.5 -64q100 0 155.5 62t55.5 186v877h372v-861q0 -153 -42 -268.5t-120 -187t-184 -107t-239 -35.5z" />
    <glyph glyph-name="V" unicode="V" horiz-adv-x="1337" 
d="M492 -8l-484 1442h402l264 -893l262 893h393l-483 -1442h-354z" />
    <glyph glyph-name="W" unicode="W" horiz-adv-x="1980" 
d="M420 -8l-400 1442h390l200 -830l224 834h317l225 -834l201 830h381l-399 -1442h-338l-232 792l-231 -792h-338z" />
    <glyph glyph-name="X" unicode="X" horiz-adv-x="1294" 
d="M858 1434h404l-402 -701l418 -733h-414l-221 444l-223 -444h-404l416 729l-397 705h411l203 -416z" />
    <glyph glyph-name="Y" unicode="Y" horiz-adv-x="1282" 
d="M457 0v537l-461 897h407l240 -519l242 519h401l-461 -893v-541h-368z" />
    <glyph glyph-name="Z" unicode="Z" horiz-adv-x="1214" 
d="M70 0v276l596 836h-578v322h1061v-277l-598 -835h598v-322h-1079z" />
    <glyph glyph-name="bracketleft" unicode="[" horiz-adv-x="821" 
d="M121 -266v1700h624v-248h-305v-1204h305v-248h-624z" />
    <glyph glyph-name="backslash" unicode="\" horiz-adv-x="956" 
d="M735 -244l-774 1860h287l772 -1860h-285z" />
    <glyph glyph-name="bracketright" unicode="]" horiz-adv-x="821" 
d="M76 -266v248h305v1204h-305v248h624v-1700h-624z" />
    <glyph glyph-name="asciicircum" unicode="^" 
d="M131 1010l252 420h256l254 -420h-246l-137 219l-137 -219h-242z" />
    <glyph glyph-name="underscore" unicode="_" horiz-adv-x="1153" 
d="M-4 -322v234h1161v-234h-1161z" />
    <glyph glyph-name="grave" unicode="`" 
d="M496 1194l-279 240l326 106l194 -346h-241z" />
    <glyph glyph-name="a" unicode="a" horiz-adv-x="1083" 
d="M365 -23q-141 0 -232.5 89.5t-91.5 246.5v15q0 173 102 261.5t277 88.5q131 0 229 -43v27q0 172 -192 172q-112 0 -262 -62l-82 266q191 86 403 86q252 0 375 -123q113 -113 113 -337v-664h-357v113q-107 -136 -282 -136zM498 213q67 0 110 44t43 118v82q-58 26 -125 26
t-105 -37t-38 -100v-8q0 -57 31.5 -90t83.5 -35z" />
    <glyph glyph-name="b" unicode="b" horiz-adv-x="1212" 
d="M743 -23q-101 0 -169.5 42t-124.5 114v-133h-361v1483h361v-516q58 77 125.5 120t168.5 43q84 0 158 -35t131.5 -102.5t91 -175t33.5 -242.5v-36q0 -137 -33 -246t-90.5 -177t-131.5 -103.5t-159 -35.5zM623 285q79 0 129.5 71t50.5 185v26q0 114 -50.5 185t-129.5 71
t-130 -71t-51 -185v-26q0 -114 51 -185t130 -71z" />
    <glyph glyph-name="c" unicode="c" horiz-adv-x="997" 
d="M567 -27q-226 0 -370 159t-144 405v22q0 247 148.5 409t380.5 162q247 0 393 -186l-211 -223q-74 94 -170 94q-84 0 -136 -71.5t-52 -184.5v-6q0 -120 52 -192t140 -72q53 0 93 24t81 70l205 -211q-155 -199 -410 -199z" />
    <glyph glyph-name="d" unicode="d" horiz-adv-x="1212" 
d="M471 -23q-85 0 -159.5 35t-132 102.5t-91 175t-33.5 242.5v37q0 137 33.5 246t91 176.5t131.5 103t158 35.5q101 0 170 -41.5t127 -113.5v508h358v-1483h-358v141q-60 -78 -128 -121t-167 -43zM592 285q77 0 127.5 71t50.5 185v26q0 114 -50.5 185t-127.5 71
q-80 0 -130 -70.5t-50 -185.5v-26q0 -115 50 -185.5t130 -70.5z" />
    <glyph glyph-name="e" unicode="e" horiz-adv-x="1095" 
d="M588 -25q-238 0 -387.5 154t-149.5 410v22q0 250 141 411t361 161q120 0 214.5 -44.5t154.5 -124.5t91 -187.5t31 -235.5q0 -74 -2 -103h-643q20 -88 76 -134t137 -46q116 0 228 104l172 -204q-171 -183 -424 -183zM395 641h314q-7 102 -48.5 157.5t-107.5 55.5
q-65 0 -106.5 -54.5t-51.5 -158.5z" />
    <glyph glyph-name="f" unicode="f" horiz-adv-x="729" 
d="M145 0v819h-108v285h108v33q0 177 88 268q91 88 269 88q122 0 213 -25v-260q-66 15 -113 15q-102 0 -102 -99v-24h215v-281h-209v-819h-361z" />
    <glyph glyph-name="g" unicode="g" horiz-adv-x="1212" 
d="M557 -313q-257 0 -471 100l100 258q155 -86 334 -86q250 0 250 238v55q-124 -160 -299 -160q-86 0 -161 32.5t-132 94t-90 160t-33 221.5v16q0 125 33 224.5t90 162t129.5 95t155.5 32.5q101 0 171.5 -40t131.5 -113v131h358v-883q0 -270 -129 -399q-142 -139 -438 -139z
M590 381q82 0 131 62t49 163v6q0 103 -49 165.5t-131 62.5q-81 0 -129.5 -63t-48.5 -165v-6q0 -102 49 -163.5t129 -61.5z" />
    <glyph glyph-name="h" unicode="h" horiz-adv-x="1148" 
d="M88 0v1483h361v-520q116 167 292 167q154 0 241 -98t87 -268v-764h-360v653q0 75 -34.5 116.5t-92.5 41.5q-60 0 -96.5 -41.5t-36.5 -116.5v-653h-361z" />
    <glyph glyph-name="i" unicode="i" horiz-adv-x="550" 
d="M90 1202v281h371v-281h-371zM96 0v1108h359v-1108h-359z" />
    <glyph glyph-name="j" unicode="j" horiz-adv-x="555" 
d="M90 1202v281h373v-281h-373zM94 -315q-57 0 -147 12v244q28 -4 45 -4q52 0 78 27.5t26 88.5v1055h361v-1067q0 -189 -91.5 -272.5t-271.5 -83.5z" />
    <glyph glyph-name="k" unicode="k" horiz-adv-x="1095" 
d="M88 0v1483h361v-746l247 371h398l-318 -442l324 -666h-395l-177 383l-79 -109v-274h-361z" />
    <glyph glyph-name="l" unicode="l" horiz-adv-x="550" 
d="M96 0v1483h359v-1483h-359z" />
    <glyph glyph-name="m" unicode="m" horiz-adv-x="1753" 
d="M88 0v1108h358v-145q117 167 293 167q197 0 281 -165q131 165 319 165q155 0 243.5 -96t88.5 -268v-766h-360v655q0 74 -32.5 115t-90.5 41t-93.5 -41t-35.5 -115v-655h-359v655q0 74 -33.5 115t-91.5 41q-57 0 -93 -41.5t-36 -114.5v-655h-358z" />
    <glyph glyph-name="n" unicode="n" horiz-adv-x="1148" 
d="M88 0v1108h361v-147q117 169 292 169q154 0 241 -98t87 -268v-764h-360v653q0 75 -34.5 116.5t-92.5 41.5q-60 0 -96.5 -41.5t-36.5 -116.5v-653h-361z" />
    <glyph glyph-name="o" unicode="o" horiz-adv-x="1179" 
d="M588 -27q-233 0 -384 159t-151 405v30q0 245 152.5 405.5t386.5 160.5q233 0 384.5 -159t151.5 -405v-30q0 -161 -69 -290.5t-192.5 -202.5t-278.5 -73zM592 283q85 0 134.5 71.5t49.5 188.5v18q0 116 -51 189t-135 73q-86 0 -135 -71t-49 -189v-18q0 -116 51 -189
t135 -73z" />
    <glyph glyph-name="p" unicode="p" horiz-adv-x="1212" 
d="M88 -309v1417h361v-141q58 77 125.5 120t168.5 43q84 0 158 -35t131.5 -102.5t91 -175t33.5 -242.5v-36q0 -137 -33 -246t-90.5 -177t-131.5 -103.5t-159 -35.5q-101 0 -169.5 42t-124.5 114v-442h-361zM623 285q79 0 129.5 71t50.5 185v26q0 114 -50.5 185t-129.5 71
t-130 -71t-51 -185v-26q0 -114 51 -185t130 -71z" />
    <glyph glyph-name="q" unicode="q" horiz-adv-x="1212" 
d="M766 -309v450q-60 -78 -128 -121t-167 -43q-85 0 -159.5 35t-132 102.5t-91 175t-33.5 242.5v37q0 137 33.5 246t91 176.5t131.5 103t158 35.5q101 0 170 -41.5t127 -113.5v133h358v-1417h-358zM592 285q77 0 127.5 71t50.5 185v26q0 114 -50.5 185t-127.5 71
q-80 0 -130 -70.5t-50 -185.5v-26q0 -115 50 -185.5t130 -70.5z" />
    <glyph glyph-name="r" unicode="r" horiz-adv-x="772" 
d="M88 0v1108h361v-201q43 110 113 166.5t181 50.5v-393h-24q-270 0 -270 -325v-406h-361z" />
    <glyph glyph-name="s" unicode="s" horiz-adv-x="927" 
d="M469 -23q-257 0 -459 150l135 240q174 -121 322 -121q44 0 67 17t23 44v4q0 30 -33.5 50t-128.5 57q-83 31 -137 58t-103.5 67.5t-73.5 96t-24 128.5v4q0 165 114 260.5t298 95.5q224 0 405 -118l-131 -244q-150 94 -272 94q-41 0 -62.5 -16t-21.5 -41v-4q0 -28 34.5 -49
t129.5 -60q83 -31 138.5 -60.5t103.5 -70t71 -93.5t23 -122v-4q0 -171 -114 -267t-304 -96z" />
    <glyph glyph-name="t" unicode="t" horiz-adv-x="772" 
d="M475 -20q-159 0 -244.5 75.5t-85.5 245.5v518h-110v289h110v276h359v-276h217v-289h-217v-436q0 -49 22.5 -70.5t69.5 -21.5q59 0 123 28v-282q-103 -57 -244 -57z" />
    <glyph glyph-name="u" unicode="u" horiz-adv-x="1148" 
d="M408 -23q-154 0 -241 98.5t-87 268.5v764h360v-653q0 -75 34.5 -116.5t92.5 -41.5q60 0 96.5 41.5t36.5 116.5v653h361v-1108h-361v145q-116 -168 -292 -168z" />
    <glyph glyph-name="v" unicode="v" horiz-adv-x="1124" 
d="M393 -8l-379 1116h375l176 -649l176 649h369l-379 -1116h-338z" />
    <glyph glyph-name="w" unicode="w" horiz-adv-x="1562" 
d="M313 -8l-293 1116h353l123 -561l139 565h293l141 -567l125 563h350l-297 -1116h-315l-152 561l-153 -561h-314z" />
    <glyph glyph-name="x" unicode="x" horiz-adv-x="1075" 
d="M401 1108l138 -283l141 283h375l-316 -547l324 -561h-383l-145 295l-148 -295h-375l322 559l-316 549h383z" />
    <glyph glyph-name="y" unicode="y" horiz-adv-x="1124" 
d="M571 455l172 653h365l-350 -1077q-62 -189 -147.5 -267.5t-237.5 -78.5q-155 0 -293 77l92 256q79 -45 139 -45q57 0 80 43l-375 1092h373z" />
    <glyph glyph-name="z" unicode="z" horiz-adv-x="995" 
d="M53 0v242l441 575h-426v291h880v-242l-442 -575h442v-291h-895z" />
    <glyph glyph-name="braceleft" unicode="{" horiz-adv-x="892" 
d="M793 -287q-185 18 -298 67t-160.5 122.5t-47.5 181.5q0 30 10 101.5t10 99.5q0 98 -52 138t-161 40h-35v248h35q108 0 160.5 40.5t52.5 137.5q0 29 -10 100t-10 101q0 108 47.5 181.5t160.5 122t298 66.5l47 -221q-137 -26 -185.5 -69.5t-48.5 -131.5q0 -27 11.5 -92.5
t11.5 -99.5q0 -202 -230 -258q230 -56 230 -260q0 -34 -11.5 -100t-11.5 -93q0 -88 48.5 -131t185.5 -67z" />
    <glyph glyph-name="bar" unicode="|" horiz-adv-x="647" 
d="M188 -244v1860h271v-1860h-271z" />
    <glyph glyph-name="braceright" unicode="}" horiz-adv-x="892" 
d="M102 -287l-49 224q138 24 186 66.5t48 131.5q0 27 -10.5 93t-10.5 100q0 205 230 260q-230 55 -230 258q0 34 10.5 99.5t10.5 92.5q0 89 -48 132t-186 69l49 221q272 -27 388 -117.5t116 -252.5q0 -30 -10 -101t-10 -100q0 -96 53 -137t160 -41h37v-248h-37
q-108 0 -160.5 -40.5t-52.5 -137.5q0 -28 10 -99.5t10 -101.5q0 -108 -47.5 -181.5t-160 -122.5t-296.5 -67z" />
    <glyph glyph-name="asciitilde" unicode="~" horiz-adv-x="942" 
d="M639 483q-67 0 -176 41q-94 37 -121 37q-35 0 -53.5 -20.5t-38.5 -71.5l-172 45q26 144 81.5 213.5t145.5 69.5q64 0 174 -43q93 -35 121 -35q36 0 55.5 20.5t38.5 69.5l170 -45q-27 -143 -81 -212t-144 -69z" />
    <glyph glyph-name="uni00A0" unicode="&#xa0;" horiz-adv-x="487" 
 />
    <glyph glyph-name="exclamdown" unicode="&#xa1;" horiz-adv-x="604" 
d="M111 1092v342h383v-342h-383zM92 0v129l117 840h186l117 -840v-129h-420z" />
    <glyph glyph-name="cent" unicode="&#xa2;" horiz-adv-x="1015" 
d="M776 1446l-22 -168q141 -45 229 -158l-195 -211q-85 99 -198 99q-93 0 -149 -77t-56 -200v-6q0 -134 56.5 -208.5t158.5 -74.5q109 0 195 99l190 -201q-145 -176 -367 -190l-20 -162h-227l24 192q-154 58 -246 199.5t-92 331.5v22q0 233 130.5 389t342.5 176l19 148h227z
" />
    <glyph glyph-name="sterling" unicode="&#xa3;" horiz-adv-x="1142" 
d="M74 0v229l139 58v256h-137v278h137v127q0 250 131 381q129 129 348 129q247 0 410 -170l-199 -262q-87 94 -178 94q-61 0 -100 -39q-43 -40 -43 -137v-123h370v-278h-370v-238h505v-305h-1013z" />
    <glyph glyph-name="yen" unicode="&#xa5;" horiz-adv-x="1265" 
d="M131 535v239h234l-359 660h404l227 -488l227 488h398l-365 -660h240v-239h-322v-103h322v-239h-322v-193h-364v193h-320v239h320v103h-320z" />
    <glyph glyph-name="section" unicode="&#xa7;" horiz-adv-x="1150" 
d="M903 500q90 -77 90 -197v-4q0 -143 -112.5 -233.5t-315.5 -90.5q-124 0 -236 36t-194 98l135 227q64 -43 142.5 -73t148.5 -30q50 0 75.5 17t25.5 45v4q0 28 -39.5 49t-145.5 53q-80 22 -134 40.5t-110.5 44.5t-89.5 54.5t-54 68.5t-21 89v4q0 160 182 232
q-92 76 -92 199v4q0 141 113.5 231t314.5 90q125 0 237.5 -36t192.5 -97l-133 -227q-64 43 -143 72.5t-150 29.5q-101 0 -101 -61v-2q0 -29 40.5 -51.5t146.5 -53.5q81 -23 133 -40.5t109.5 -44t89.5 -54.5t53.5 -68.5t21.5 -89.5v-4q0 -160 -180 -231zM700 604
q42 0 69.5 20.5t27.5 55.5v4q0 33 -44 58.5t-141 54.5q-103 32 -159 32q-44 0 -71.5 -20t-27.5 -55v-4q0 -33 44 -58.5t141 -54.5q106 -33 161 -33z" />
    <glyph glyph-name="dieresis" unicode="&#xa8;" 
d="M555 1194v274h301v-274h-301zM168 1194v274h301v-274h-301z" />
    <glyph glyph-name="copyright" unicode="&#xa9;" horiz-adv-x="1499" 
d="M750 -27q-187 0 -339 95.5t-238.5 263.5t-86.5 373v22q0 205 87 373t239.5 264t339.5 96q186 0 337.5 -95.5t237.5 -263t86 -372.5v-22q0 -154 -51 -290t-139 -233.5t-211 -154t-262 -56.5zM750 53q166 0 299 86t206.5 235t73.5 333v24q0 183 -73 331t-205.5 233
t-298.5 85q-167 0 -300.5 -85.5t-207.5 -234.5t-74 -333v-25q0 -183 74 -331t207 -233t299 -85zM768 311q-162 0 -264.5 111t-102.5 293v16q0 181 105 293.5t268 112.5q168 0 275 -123l-134 -144q-61 72 -139 72q-70 0 -115 -57t-45 -156v-8q0 -101 46 -158t116 -57
q43 0 75.5 19.5t66.5 56.5l133 -136q-109 -135 -285 -135z" />
    <glyph glyph-name="ordfeminine" unicode="&#xaa;" horiz-adv-x="710" 
d="M260 817q-79 0 -128.5 48t-49.5 136v9q0 94 55.5 142t151.5 48q70 0 127 -24v12q0 96 -107 96q-61 0 -145 -37l-45 150q102 47 223 47q137 0 205 -68q63 -60 63 -186v-363h-196v64q-61 -74 -154 -74zM78 567v150h545v-150h-545zM332 946q37 0 61.5 23.5t24.5 62.5v47
q-45 15 -70 15q-37 0 -58.5 -19.5t-21.5 -54.5v-8q0 -31 17.5 -48.5t46.5 -17.5z" />
    <glyph glyph-name="guillemotleft" unicode="&#xab;" horiz-adv-x="1165" 
d="M879 74l-349 467v18l349 469l233 -115l-221 -362l223 -361zM377 74l-324 436v80l324 438l233 -115l-221 -362l223 -361z" />
    <glyph glyph-name="registered" unicode="&#xae;" horiz-adv-x="700" 
d="M350 737q-138 0 -230.5 101.5t-92.5 251.5v12q0 150 93 252t230 102q138 0 231 -101.5t93 -250.5v-12q0 -151 -93 -253t-231 -102zM350 776q122 0 202.5 91t80.5 225v12q0 133 -80 223t-203 90q-122 0 -202 -91t-80 -224v-12q0 -134 79.5 -224t202.5 -90zM207 911v383
h155q72 0 114 -33t42 -96v-2q0 -80 -69 -114l79 -138h-120l-66 115h-29v-115h-106zM313 1112h45q50 0 50 45v2q0 45 -50 45h-45v-92z" />
    <glyph glyph-name="macron" unicode="&#xaf;" 
d="M168 1206v217h688v-217h-688z" />
    <glyph glyph-name="degree" unicode="&#xb0;" horiz-adv-x="841" 
d="M420 723q-139 0 -236.5 101t-97.5 253v17q0 151 98 252.5t236 101.5t236 -101.5t98 -252.5v-17q0 -152 -97 -253t-237 -101zM420 907q60 0 98.5 48t38.5 126v9q0 77 -39 125.5t-98 48.5t-97 -48.5t-38 -125.5v-9q0 -77 38 -125.5t97 -48.5z" />
    <glyph glyph-name="plusminus" unicode="&#xb1;" horiz-adv-x="1163" 
d="M1065 725l-330 2l2 -319h-309v319l-328 -2v297l328 -2v321h309l-2 -321l330 2v-297zM1063 0h-963v276h963v-276z" />
    <glyph glyph-name="acute" unicode="&#xb4;" 
d="M283 1194l194 346l326 -106l-279 -240h-241z" />
    <glyph glyph-name="paragraph" unicode="&#xb6;" horiz-adv-x="1067" 
d="M602 0v453h-29q-115 4 -211 35.5t-168.5 90.5t-113.5 150.5t-41 208.5v6q0 239 151.5 364.5t407.5 125.5h363v-1434h-359z" />
    <glyph glyph-name="periodcentered" unicode="&#xb7;" horiz-adv-x="544" 
d="M82 451v378h379v-378h-379z" />
    <glyph glyph-name="cedilla" unicode="&#xb8;" 
d="M532 -326l-294 111l186 256h231z" />
    <glyph glyph-name="ordmasculine" unicode="&#xba;" horiz-adv-x="710" 
d="M354 811q-126 0 -208.5 87t-82.5 220v17q0 136 82.5 222.5t210.5 86.5q127 0 209 -85.5t82 -219.5v-19q0 -135 -82.5 -222t-210.5 -87zM92 567v150h526v-150h-526zM356 981q46 0 72.5 38t26.5 101v15q0 63 -27.5 102t-73.5 39t-72 -38t-26 -103v-13q0 -63 28 -102t72 -39
z" />
    <glyph glyph-name="guillemotright" unicode="&#xbb;" horiz-adv-x="1165" 
d="M791 74l-236 114l223 361l-223 362l236 117l323 -438v-80zM289 74l-236 114l223 361l-223 362l236 117l348 -469v-18z" />
    <glyph glyph-name="questiondown" unicode="&#xbf;" horiz-adv-x="987" 
d="M348 1092v342h383v-342h-383zM512 -18q-214 0 -343.5 112.5t-129.5 300.5v2q0 171 94 268t262 144l25 160h231l47 -351l-14 -14q-287 -35 -287 -174v-4q0 -53 39.5 -84t106.5 -31q123 0 262 119l172 -266q-201 -182 -465 -182z" />
    <glyph glyph-name="Agrave" unicode="&#xc0;" horiz-adv-x="1396" 
d="M8 0l504 1442h373l506 -1442h-387l-84 258h-451l-82 -258h-379zM561 553h266l-133 420zM840 1532h-265l-276 201l342 104z" />
    <glyph glyph-name="Aacute" unicode="&#xc1;" horiz-adv-x="1396" 
d="M8 0l504 1442h373l506 -1442h-387l-84 258h-451l-82 -258h-379zM561 553h266l-133 420zM557 1532l201 305l340 -104l-275 -201h-266z" />
    <glyph glyph-name="Acircumflex" unicode="&#xc2;" horiz-adv-x="1396" 
d="M8 0l504 1442h373l506 -1442h-387l-84 258h-451l-82 -258h-379zM561 553h266l-133 420zM322 1530l221 282h311l221 -282h-241l-138 102l-137 -102h-237z" />
    <glyph glyph-name="Atilde" unicode="&#xc3;" horiz-adv-x="1396" 
d="M8 0l504 1442h373l506 -1442h-387l-84 258h-451l-82 -258h-379zM561 553h266l-133 420zM877 1532q-58 0 -183 41q-96 35 -123 35q-33 0 -52 -20t-38 -68l-174 43q27 145 80 213.5t145 68.5q56 0 185 -41q85 -32 119 -32q35 0 54.5 20t37.5 68l174 -45q-27 -145 -80 -214
t-145 -69z" />
    <glyph glyph-name="Adieresis" unicode="&#xc4;" horiz-adv-x="1396" 
d="M8 0l504 1442h373l506 -1442h-387l-84 258h-451l-82 -258h-379zM561 553h266l-133 420zM750 1534v264h305v-264h-305zM342 1534v264h305v-264h-305z" />
    <glyph glyph-name="Aring" unicode="&#xc5;" horiz-adv-x="1396" 
d="M8 0l479 1376q-49 58 -49 140q0 100 75 166.5t185 66.5t185 -66.5t75 -166.5q0 -78 -49 -140l482 -1376h-387l-84 258h-451l-82 -258h-379zM561 553h266l-133 420zM698 1397q58 0 94.5 33.5t36.5 85.5q0 51 -36.5 84.5t-94.5 33.5q-57 0 -93 -33.5t-36 -84.5t36 -85
t93 -34z" />
    <glyph glyph-name="AE" unicode="&#xc6;" horiz-adv-x="1873" 
d="M-10 0l628 1434h1182v-324h-590v-236h531v-305h-531v-245h600v-324h-962v258h-381l-109 -258h-368zM592 553h256v563h-25z" />
    <glyph glyph-name="Ccedilla" unicode="&#xc7;" horiz-adv-x="1263" 
d="M680 -326l-295 111l156 215q-215 57 -345 242.5t-130 459.5v25q0 163 51 300.5t140 231.5t211.5 146.5t262.5 52.5q304 0 496 -225l-238 -252q-111 135 -252 135q-129 0 -211 -106.5t-82 -286.5v-8q0 -187 82 -292.5t211 -105.5q84 0 143.5 37t118.5 105l234 -238
q-178 -220 -453 -241z" />
    <glyph glyph-name="Egrave" unicode="&#xc8;" horiz-adv-x="1167" 
d="M745 1518h-264l-276 200l342 105zM106 0v1434h988v-324h-623v-236h561v-305h-561v-245h631v-324h-996z" />
    <glyph glyph-name="Eacute" unicode="&#xc9;" horiz-adv-x="1167" 
d="M461 1518l201 305l339 -105l-274 -200h-266zM106 0v1434h988v-324h-623v-236h561v-305h-561v-245h631v-324h-996z" />
    <glyph glyph-name="Ecircumflex" unicode="&#xca;" horiz-adv-x="1167" 
d="M106 0v1434h988v-324h-623v-236h561v-305h-561v-245h631v-324h-996zM225 1518l221 282h312l221 -282h-242l-137 102l-137 -102h-238z" />
    <glyph glyph-name="Edieresis" unicode="&#xcb;" horiz-adv-x="1167" 
d="M653 1520v264h305v-264h-305zM246 1520v264h305v-264h-305zM106 0v1434h988v-324h-623v-236h561v-305h-561v-245h631v-324h-996z" />
    <glyph glyph-name="Igrave" unicode="&#xcc;" horiz-adv-x="595" 
d="M113 0v1434h368v-1434h-368zM440 1518h-264l-276 200l342 105z" />
    <glyph glyph-name="Iacute" unicode="&#xcd;" horiz-adv-x="595" 
d="M113 0v1434h368v-1434h-368zM158 1518l200 305l340 -105l-274 -200h-266z" />
    <glyph glyph-name="Icircumflex" unicode="&#xce;" horiz-adv-x="595" 
d="M113 0v1434h368v-1434h-368zM-78 1518l221 282h312l221 -282h-242l-137 102l-137 -102h-238z" />
    <glyph glyph-name="Idieresis" unicode="&#xcf;" horiz-adv-x="595" 
d="M113 0v1434h368v-1434h-368zM350 1520v264h305v-264h-305zM-57 1520v264h305v-264h-305z" />
    <glyph glyph-name="Eth" unicode="&#xd0;" horiz-adv-x="1443" 
d="M182 0v573h-135v297h135v564h473q340 0 531.5 -190t191.5 -511v-24q0 -211 -85 -370.5t-250.5 -249t-393.5 -89.5h-467zM741 575h-196v-251h114q161 0 251.5 97t90.5 286v18q0 192 -90.5 288.5t-251.5 96.5h-114v-244h196v-291z" />
    <glyph glyph-name="Ntilde" unicode="&#xd1;" horiz-adv-x="1396" 
d="M877 1518q-58 0 -183 41q-93 34 -123 34q-33 0 -52 -20t-38 -68l-174 43q27 145 80 214t145 69q56 0 185 -41q87 -33 119 -33q35 0 54.5 20t37.5 68l174 -45q-27 -145 -80 -213.5t-145 -68.5zM106 0v1434h347l477 -721v721h362v-1434h-327l-496 752v-752h-363z" />
    <glyph glyph-name="Ograve" unicode="&#xd2;" horiz-adv-x="1460" 
d="M870 1532h-264l-276 201l342 104zM729 -27q-192 0 -343 91.5t-235.5 257.5t-84.5 378v31q0 211 85.5 377.5t237.5 259t342 92.5q291 0 477.5 -203t186.5 -524v-31q0 -211 -86 -377.5t-237.5 -259t-342.5 -92.5zM731 307q130 0 208.5 107t78.5 291v22q0 184 -80 291.5
t-209 107.5t-208 -106.5t-79 -290.5v-22q0 -184 80 -292t209 -108z" />
    <glyph glyph-name="Oacute" unicode="&#xd3;" horiz-adv-x="1460" 
d="M588 1532l200 305l340 -104l-274 -201h-266zM729 -27q-192 0 -343 91.5t-235.5 257.5t-84.5 378v31q0 211 85.5 377.5t237.5 259t342 92.5q291 0 477.5 -203t186.5 -524v-31q0 -211 -86 -377.5t-237.5 -259t-342.5 -92.5zM731 307q130 0 208.5 107t78.5 291v22
q0 184 -80 291.5t-209 107.5t-208 -106.5t-79 -290.5v-22q0 -184 80 -292t209 -108z" />
    <glyph glyph-name="Ocircumflex" unicode="&#xd4;" horiz-adv-x="1460" 
d="M729 -27q-192 0 -343 91.5t-235.5 257.5t-84.5 378v31q0 211 85.5 377.5t237.5 259t342 92.5q291 0 477.5 -203t186.5 -524v-31q0 -211 -86 -377.5t-237.5 -259t-342.5 -92.5zM731 307q130 0 208.5 107t78.5 291v22q0 184 -80 291.5t-209 107.5t-208 -106.5t-79 -290.5
v-22q0 -184 80 -292t209 -108zM352 1532l221 283h312l221 -283h-242l-137 102l-137 -102h-238z" />
    <glyph glyph-name="Otilde" unicode="&#xd5;" horiz-adv-x="1460" 
d="M909 1532q-57 0 -182 41q-96 35 -123 35q-33 0 -52 -20t-38 -68l-174 43q27 145 80 213.5t145 68.5q56 0 185 -41q85 -32 118 -32q35 0 55 20t38 68l174 -45q-27 -145 -80.5 -214t-145.5 -69zM729 -27q-192 0 -343 91.5t-235.5 257.5t-84.5 378v31q0 211 85.5 377.5
t237.5 259t342 92.5q291 0 477.5 -203t186.5 -524v-31q0 -211 -86 -377.5t-237.5 -259t-342.5 -92.5zM731 307q130 0 208.5 107t78.5 291v22q0 184 -80 291.5t-209 107.5t-208 -106.5t-79 -290.5v-22q0 -184 80 -292t209 -108z" />
    <glyph glyph-name="Odieresis" unicode="&#xd6;" horiz-adv-x="1460" 
d="M780 1534v264h305v-264h-305zM373 1534v264h305v-264h-305zM729 -27q-192 0 -343 91.5t-235.5 257.5t-84.5 378v31q0 211 85.5 377.5t237.5 259t342 92.5q291 0 477.5 -203t186.5 -524v-31q0 -211 -86 -377.5t-237.5 -259t-342.5 -92.5zM731 307q130 0 208.5 107
t78.5 291v22q0 184 -80 291.5t-209 107.5t-208 -106.5t-79 -290.5v-22q0 -184 80 -292t209 -108z" />
    <glyph glyph-name="multiply" unicode="&#xd7;" horiz-adv-x="1163" 
d="M848 225l-268 279l-269 -279l-221 217l279 277l-281 276l227 222l269 -279l268 279l223 -218l-280 -276l280 -277z" />
    <glyph glyph-name="Oslash" unicode="&#xd8;" horiz-adv-x="1460" 
d="M1149 1444h254l-168 -221q160 -200 160 -490v-31q0 -211 -86 -377.5t-237.5 -259t-342.5 -92.5q-201 0 -354 101l-64 -84h-252l166 219q-159 202 -159 491v31q0 211 85.5 377.5t237.5 259t342 92.5q193 0 352 -100zM436 707q0 -111 27 -193l420 571q-65 50 -154 50
q-132 0 -212.5 -109t-80.5 -295v-24zM733 299q132 0 211.5 108.5t79.5 294.5v25q0 102 -29 191l-417 -570q67 -49 155 -49z" />
    <glyph glyph-name="Ugrave" unicode="&#xd9;" horiz-adv-x="1349" 
d="M815 1518h-264l-277 200l342 105zM672 -25q-272 0 -426 147.5t-154 444.5v867h371v-871q0 -126 56.5 -190t154.5 -64q100 0 155.5 62t55.5 186v877h372v-861q0 -153 -42 -268.5t-120 -187t-184 -107t-239 -35.5z" />
    <glyph glyph-name="Uacute" unicode="&#xda;" horiz-adv-x="1349" 
d="M532 1518l201 305l340 -105l-274 -200h-267zM672 -25q-272 0 -426 147.5t-154 444.5v867h371v-871q0 -126 56.5 -190t154.5 -64q100 0 155.5 62t55.5 186v877h372v-861q0 -153 -42 -268.5t-120 -187t-184 -107t-239 -35.5z" />
    <glyph glyph-name="Ucircumflex" unicode="&#xdb;" horiz-adv-x="1349" 
d="M672 -25q-272 0 -426 147.5t-154 444.5v867h371v-871q0 -126 56.5 -190t154.5 -64q100 0 155.5 62t55.5 186v877h372v-861q0 -153 -42 -268.5t-120 -187t-184 -107t-239 -35.5zM297 1518l221 282h311l222 -282h-242l-137 102l-137 -102h-238z" />
    <glyph glyph-name="Udieresis" unicode="&#xdc;" horiz-adv-x="1349" 
d="M723 1520v264h305v-264h-305zM315 1520v264h306v-264h-306zM672 -25q-272 0 -426 147.5t-154 444.5v867h371v-871q0 -126 56.5 -190t154.5 -64q100 0 155.5 62t55.5 186v877h372v-861q0 -153 -42 -268.5t-120 -187t-184 -107t-239 -35.5z" />
    <glyph glyph-name="Yacute" unicode="&#xdd;" horiz-adv-x="1282" 
d="M457 0v537l-461 897h407l240 -519l242 519h401l-461 -893v-541h-368zM498 1518l200 305l340 -105l-274 -200h-266z" />
    <glyph glyph-name="Thorn" unicode="&#xde;" horiz-adv-x="1224" 
d="M106 0v1434h367v-199h150q255 0 405 -128.5t150 -365.5v-10q0 -125 -44 -223t-121 -159.5t-178.5 -93.5t-220.5 -32h-141v-223h-367zM473 528h129q96 0 151.5 53t55.5 144v6q0 97 -54 148t-155 51h-127v-402z" />
    <glyph glyph-name="germandbls" unicode="&#xdf;" horiz-adv-x="1169" 
d="M567 -6v270q94 8 145.5 53t51.5 121v2q0 74 -52 119t-145 57v211q146 80 146 215v5q0 67 -34.5 107t-90.5 40q-64 0 -101.5 -51t-37.5 -146v-997h-361v991q0 232 131 368t375 136q217 0 343 -115t126 -288v-9q0 -218 -199 -329q113 -41 184.5 -126.5t71.5 -219.5v-7
q0 -201 -149 -308.5t-404 -98.5z" />
    <glyph glyph-name="agrave" unicode="&#xe0;" horiz-adv-x="1083" 
d="M365 -23q-141 0 -232.5 89.5t-91.5 246.5v15q0 173 102 261.5t277 88.5q131 0 229 -43v27q0 172 -192 172q-112 0 -262 -62l-82 266q191 86 403 86q252 0 375 -123q113 -113 113 -337v-664h-357v113q-107 -136 -282 -136zM498 213q67 0 110 44t43 118v82q-58 26 -125 26
t-105 -37t-38 -100v-8q0 -57 31.5 -90t83.5 -35zM440 1202l-278 240l325 106l195 -346h-242z" />
    <glyph glyph-name="aacute" unicode="&#xe1;" horiz-adv-x="1083" 
d="M365 -23q-141 0 -232.5 89.5t-91.5 246.5v15q0 173 102 261.5t277 88.5q131 0 229 -43v27q0 172 -192 172q-112 0 -262 -62l-82 266q191 86 403 86q252 0 375 -123q113 -113 113 -337v-664h-357v113q-107 -136 -282 -136zM498 213q67 0 110 44t43 118v82q-58 26 -125 26
t-105 -37t-38 -100v-8q0 -57 31.5 -90t83.5 -35zM410 1202l194 346l326 -106l-279 -240h-241z" />
    <glyph glyph-name="acircumflex" unicode="&#xe2;" horiz-adv-x="1083" 
d="M365 -23q-141 0 -232.5 89.5t-91.5 246.5v15q0 173 102 261.5t277 88.5q131 0 229 -43v27q0 172 -192 172q-112 0 -262 -62l-82 266q191 86 403 86q252 0 375 -123q113 -113 113 -337v-664h-357v113q-107 -136 -282 -136zM498 213q67 0 110 44t43 118v82q-58 26 -125 26
t-105 -37t-38 -100v-8q0 -57 31.5 -90t83.5 -35zM174 1202l232 311h282l232 -311h-228l-147 117l-148 -117h-223z" />
    <glyph glyph-name="atilde" unicode="&#xe3;" horiz-adv-x="1083" 
d="M365 -23q-141 0 -232.5 89.5t-91.5 246.5v15q0 173 102 261.5t277 88.5q131 0 229 -43v27q0 172 -192 172q-112 0 -262 -62l-82 266q191 86 403 86q252 0 375 -123q113 -113 113 -337v-664h-357v113q-107 -136 -282 -136zM498 213q67 0 110 44t43 118v82q-58 26 -125 26
t-105 -37t-38 -100v-8q0 -57 31.5 -90t83.5 -35zM719 1200q-59 0 -172 41q-93 35 -119 35q-36 0 -53.5 -19t-36.5 -69l-172 43q27 145 78.5 213.5t142.5 68.5q62 0 172 -40q93 -35 119 -35q35 0 53.5 19.5t36.5 68.5l172 -43q-27 -146 -79 -214.5t-142 -68.5z" />
    <glyph glyph-name="adieresis" unicode="&#xe4;" horiz-adv-x="1083" 
d="M365 -23q-141 0 -232.5 89.5t-91.5 246.5v15q0 173 102 261.5t277 88.5q131 0 229 -43v27q0 172 -192 172q-112 0 -262 -62l-82 266q191 86 403 86q252 0 375 -123q113 -113 113 -337v-664h-357v113q-107 -136 -282 -136zM498 213q67 0 110 44t43 118v82q-58 26 -125 26
t-105 -37t-38 -100v-8q0 -57 31.5 -90t83.5 -35zM590 1202v275h301v-275h-301zM203 1202v275h301v-275h-301z" />
    <glyph glyph-name="aring" unicode="&#xe5;" horiz-adv-x="1083" 
d="M365 -23q-141 0 -232.5 89.5t-91.5 246.5v15q0 173 102 261.5t277 88.5q131 0 229 -43v27q0 172 -192 172q-112 0 -262 -62l-82 266q191 86 403 86q252 0 375 -123q113 -113 113 -337v-664h-357v113q-107 -136 -282 -136zM498 213q67 0 110 44t43 118v82q-58 26 -125 26
t-105 -37t-38 -100v-8q0 -57 31.5 -90t83.5 -35zM547 1200q-103 0 -174.5 69.5t-71.5 170.5q0 100 71.5 168.5t174.5 68.5t174.5 -68.5t71.5 -168.5q0 -101 -71.5 -170.5t-174.5 -69.5zM547 1313q52 0 87.5 36.5t35.5 90.5q0 53 -35.5 90t-87.5 37t-87.5 -37t-35.5 -90
q0 -54 35.5 -90.5t87.5 -36.5z" />
    <glyph glyph-name="ae" unicode="&#xe6;" horiz-adv-x="1687" 
d="M403 -23q-159 0 -260.5 89.5t-101.5 252.5v11q0 172 102 260t277 88q131 0 229 -43v27q0 84 -48.5 128t-143.5 44q-122 0 -262 -66l-82 272q193 84 401 84q222 0 334 -118q124 127 303 127q117 0 210 -45t152.5 -124.5t91 -187t31.5 -235.5q0 -5 -1 -46t-1 -57h-645
q20 -88 76 -134t139 -46q119 0 226 104l172 -204q-171 -183 -422 -183q-122 0 -224.5 44.5t-171.5 127.5q-79 -79 -177.5 -124.5t-203.5 -45.5zM985 641h313q-6 102 -47 157.5t-108 55.5q-64 0 -106 -54.5t-52 -158.5zM506 217q95 0 182 96q-23 63 -33 144q-65 26 -127 26
q-68 0 -106.5 -36.5t-38.5 -100.5v-8q0 -56 34 -88.5t89 -32.5z" />
    <glyph glyph-name="ccedilla" unicode="&#xe7;" horiz-adv-x="997" 
d="M535 -326l-295 111l157 215q-158 54 -251 198.5t-93 338.5v22q0 247 148.5 409t380.5 162q247 0 393 -186l-211 -223q-74 94 -170 94q-84 0 -136 -71.5t-52 -184.5v-6q0 -120 52 -192t140 -72q53 0 93 24t81 70l205 -211q-134 -173 -342 -195z" />
    <glyph glyph-name="egrave" unicode="&#xe8;" horiz-adv-x="1095" 
d="M588 -25q-238 0 -387.5 154t-149.5 410v22q0 250 141 411t361 161q120 0 214.5 -44.5t154.5 -124.5t91 -187.5t31 -235.5q0 -74 -2 -103h-643q20 -88 76 -134t137 -46q116 0 228 104l172 -204q-171 -183 -424 -183zM395 641h314q-7 102 -48.5 157.5t-107.5 55.5
q-65 0 -106.5 -54.5t-51.5 -158.5zM449 1202l-279 240l326 106l194 -346h-241z" />
    <glyph glyph-name="eacute" unicode="&#xe9;" horiz-adv-x="1095" 
d="M418 1202l194 346l326 -106l-279 -240h-241zM588 -25q-238 0 -387.5 154t-149.5 410v22q0 250 141 411t361 161q120 0 214.5 -44.5t154.5 -124.5t91 -187.5t31 -235.5q0 -74 -2 -103h-643q20 -88 76 -134t137 -46q116 0 228 104l172 -204q-171 -183 -424 -183zM395 641
h314q-7 102 -48.5 157.5t-107.5 55.5q-65 0 -106.5 -54.5t-51.5 -158.5z" />
    <glyph glyph-name="ecircumflex" unicode="&#xea;" horiz-adv-x="1095" 
d="M182 1200l232 311h282l232 -311h-228l-147 117l-147 -117h-224zM588 -25q-238 0 -387.5 154t-149.5 410v22q0 250 141 411t361 161q120 0 214.5 -44.5t154.5 -124.5t91 -187.5t31 -235.5q0 -74 -2 -103h-643q20 -88 76 -134t137 -46q116 0 228 104l172 -204
q-171 -183 -424 -183zM395 641h314q-7 102 -48.5 157.5t-107.5 55.5q-65 0 -106.5 -54.5t-51.5 -158.5z" />
    <glyph glyph-name="edieresis" unicode="&#xeb;" horiz-adv-x="1095" 
d="M596 1202v275h301v-275h-301zM209 1202v275h301v-275h-301zM588 -25q-238 0 -387.5 154t-149.5 410v22q0 250 141 411t361 161q120 0 214.5 -44.5t154.5 -124.5t91 -187.5t31 -235.5q0 -74 -2 -103h-643q20 -88 76 -134t137 -46q116 0 228 104l172 -204
q-171 -183 -424 -183zM395 641h314q-7 102 -48.5 157.5t-107.5 55.5q-65 0 -106.5 -54.5t-51.5 -158.5z" />
    <glyph glyph-name="igrave" unicode="&#xec;" horiz-adv-x="550" 
d="M96 0v1108h359v-1108h-359zM170 1194l-279 240l326 106l195 -346h-242z" />
    <glyph glyph-name="iacute" unicode="&#xed;" horiz-adv-x="550" 
d="M141 1194l195 346l326 -106l-279 -240h-242zM96 0v1108h359v-1108h-359z" />
    <glyph glyph-name="icircumflex" unicode="&#xee;" horiz-adv-x="550" 
d="M-96 1194l231 311h283l231 -311h-227l-148 117l-147 -117h-223zM96 0v1108h359v-1108h-359z" />
    <glyph glyph-name="idieresis" unicode="&#xef;" horiz-adv-x="550" 
d="M319 1194v274h302v-274h-302zM-68 1194v274h301v-274h-301zM96 0v1108h359v-1108h-359z" />
    <glyph glyph-name="eth" unicode="&#xf0;" horiz-adv-x="1179" 
d="M999 1325l-120 -31q247 -307 247 -663v-25q0 -287 -146 -460t-394 -173q-236 0 -384.5 160.5t-148.5 421.5v33q0 234 116 377t290 143q68 0 118.5 -17.5t104.5 -56.5q-50 87 -129 178l-215 -53l-55 162l131 33q-77 68 -160 129h438l53 -47l199 51zM592 283q85 0 134.5 71
t49.5 187v18q0 117 -51.5 189.5t-136.5 72.5t-133.5 -71t-48.5 -187v-18q0 -116 51 -189t135 -73z" />
    <glyph glyph-name="ntilde" unicode="&#xf1;" horiz-adv-x="1148" 
d="M88 0v1108h361v-147q117 169 292 169q154 0 241 -98t87 -268v-764h-360v653q0 75 -34.5 116.5t-92.5 41.5q-60 0 -96.5 -41.5t-36.5 -116.5v-653h-361zM750 1200q-59 0 -172 41q-93 35 -119 35q-36 0 -53.5 -19t-36.5 -69l-172 43q27 145 78.5 213.5t142.5 68.5
q62 0 172 -40q93 -35 119 -35q35 0 53.5 19.5t36.5 68.5l172 -43q-27 -146 -79 -214.5t-142 -68.5z" />
    <glyph glyph-name="ograve" unicode="&#xf2;" horiz-adv-x="1179" 
d="M588 -27q-233 0 -384 159t-151 405v30q0 245 152.5 405.5t386.5 160.5q233 0 384.5 -159t151.5 -405v-30q0 -161 -69 -290.5t-192.5 -202.5t-278.5 -73zM592 283q85 0 134.5 71.5t49.5 188.5v18q0 116 -51 189t-135 73q-86 0 -135 -71t-49 -189v-18q0 -116 51 -189
t135 -73zM485 1202l-278 240l325 106l195 -346h-242z" />
    <glyph glyph-name="oacute" unicode="&#xf3;" horiz-adv-x="1179" 
d="M455 1202l194 346l326 -106l-279 -240h-241zM588 -27q-233 0 -384 159t-151 405v30q0 245 152.5 405.5t386.5 160.5q233 0 384.5 -159t151.5 -405v-30q0 -161 -69 -290.5t-192.5 -202.5t-278.5 -73zM592 283q85 0 134.5 71.5t49.5 188.5v18q0 116 -51 189t-135 73
q-86 0 -135 -71t-49 -189v-18q0 -116 51 -189t135 -73z" />
    <glyph glyph-name="ocircumflex" unicode="&#xf4;" horiz-adv-x="1179" 
d="M217 1200l232 311h282l232 -311h-228l-147 117l-148 -117h-223zM588 -27q-233 0 -384 159t-151 405v30q0 245 152.5 405.5t386.5 160.5q233 0 384.5 -159t151.5 -405v-30q0 -161 -69 -290.5t-192.5 -202.5t-278.5 -73zM592 283q85 0 134.5 71.5t49.5 188.5v18
q0 116 -51 189t-135 73q-86 0 -135 -71t-49 -189v-18q0 -116 51 -189t135 -73z" />
    <glyph glyph-name="otilde" unicode="&#xf5;" horiz-adv-x="1179" 
d="M588 -27q-233 0 -384 159t-151 405v30q0 245 152.5 405.5t386.5 160.5q233 0 384.5 -159t151.5 -405v-30q0 -161 -69 -290.5t-192.5 -202.5t-278.5 -73zM592 283q85 0 134.5 71.5t49.5 188.5v18q0 116 -51 189t-135 73q-86 0 -135 -71t-49 -189v-18q0 -116 51 -189
t135 -73zM762 1200q-59 0 -172 41q-93 35 -119 35q-36 0 -53.5 -19t-36.5 -69l-172 43q27 145 78.5 213.5t142.5 68.5q62 0 172 -40q93 -35 119 -35q35 0 53.5 19.5t36.5 68.5l172 -43q-27 -146 -79 -214.5t-142 -68.5z" />
    <glyph glyph-name="odieresis" unicode="&#xf6;" horiz-adv-x="1179" 
d="M633 1202v275h301v-275h-301zM246 1202v275h301v-275h-301zM588 -27q-233 0 -384 159t-151 405v30q0 245 152.5 405.5t386.5 160.5q233 0 384.5 -159t151.5 -405v-30q0 -161 -69 -290.5t-192.5 -202.5t-278.5 -73zM592 283q85 0 134.5 71.5t49.5 188.5v18q0 116 -51 189
t-135 73q-86 0 -135 -71t-49 -189v-18q0 -116 51 -189t135 -73z" />
    <glyph glyph-name="divide" unicode="&#xf7;" horiz-adv-x="1163" 
d="M414 989v307h336v-307h-336zM1069 573h-975v295h975v-295zM414 145v308h336v-308h-336z" />
    <glyph glyph-name="oslash" unicode="&#xf8;" horiz-adv-x="1179" 
d="M922 1118h231l-145 -182q120 -152 120 -367v-30q0 -161 -69 -290.5t-192.5 -202.5t-278.5 -73q-157 0 -281 76l-49 -59h-231l145 180q-119 150 -119 367v30q0 245 152.5 405.5t386.5 160.5q153 0 280 -78zM391 543q0 -61 10 -97l281 365q-46 27 -92 27q-91 0 -145 -75.5
t-54 -197.5v-22zM592 268q91 0 145 76.5t54 196.5v22q0 41 -11 94l-280 -364q42 -25 92 -25z" />
    <glyph glyph-name="ugrave" unicode="&#xf9;" horiz-adv-x="1148" 
d="M408 -23q-154 0 -241 98.5t-87 268.5v764h360v-653q0 -75 34.5 -116.5t92.5 -41.5q60 0 96.5 41.5t36.5 116.5v653h361v-1108h-361v145q-116 -168 -292 -168zM463 1194l-279 240l326 106l195 -346h-242z" />
    <glyph glyph-name="uacute" unicode="&#xfa;" horiz-adv-x="1148" 
d="M434 1194l195 346l325 -106l-278 -240h-242zM408 -23q-154 0 -241 98.5t-87 268.5v764h360v-653q0 -75 34.5 -116.5t92.5 -41.5q60 0 96.5 41.5t36.5 116.5v653h361v-1108h-361v145q-116 -168 -292 -168z" />
    <glyph glyph-name="ucircumflex" unicode="&#xfb;" horiz-adv-x="1148" 
d="M197 1194l231 311h283l231 -311h-227l-148 117l-147 -117h-223zM408 -23q-154 0 -241 98.5t-87 268.5v764h360v-653q0 -75 34.5 -116.5t92.5 -41.5q60 0 96.5 41.5t36.5 116.5v653h361v-1108h-361v145q-116 -168 -292 -168z" />
    <glyph glyph-name="udieresis" unicode="&#xfc;" horiz-adv-x="1148" 
d="M612 1194v274h301v-274h-301zM225 1194v274h301v-274h-301zM408 -23q-154 0 -241 98.5t-87 268.5v764h360v-653q0 -75 34.5 -116.5t92.5 -41.5q60 0 96.5 41.5t36.5 116.5v653h361v-1108h-361v145q-116 -168 -292 -168z" />
    <glyph glyph-name="yacute" unicode="&#xfd;" horiz-adv-x="1124" 
d="M571 455l172 653h365l-350 -1077q-62 -189 -147.5 -267.5t-237.5 -78.5q-155 0 -293 77l92 256q79 -45 139 -45q57 0 80 43l-375 1092h373zM430 1194l195 346l325 -106l-278 -240h-242z" />
    <glyph glyph-name="thorn" unicode="&#xfe;" horiz-adv-x="1212" 
d="M88 -309v1792h361v-516q58 77 125.5 120t168.5 43q84 0 158 -35t131.5 -102.5t91 -175t33.5 -242.5v-36q0 -137 -33 -246t-90.5 -177t-131.5 -103.5t-159 -35.5q-101 0 -169.5 42t-124.5 114v-442h-361zM623 285q79 0 129.5 71t50.5 185v26q0 114 -50.5 185t-129.5 71
t-130 -71t-51 -185v-26q0 -114 51 -185t130 -71z" />
    <glyph glyph-name="ydieresis" unicode="&#xff;" horiz-adv-x="1124" 
d="M571 455l172 653h365l-350 -1077q-62 -189 -147.5 -267.5t-237.5 -78.5q-155 0 -293 77l92 256q79 -45 139 -45q57 0 80 43l-375 1092h373zM608 1194v274h301v-274h-301zM221 1194v274h301v-274h-301z" />
    <glyph glyph-name="Amacron" unicode="&#x100;" horiz-adv-x="1396" 
d="M8 0l504 1442h373l506 -1442h-387l-84 258h-451l-82 -258h-379zM561 553h266l-133 420zM334 1544v225h729v-225h-729z" />
    <glyph glyph-name="amacron" unicode="&#x101;" horiz-adv-x="1083" 
d="M365 -23q-141 0 -232.5 89.5t-91.5 246.5v15q0 173 102 261.5t277 88.5q131 0 229 -43v27q0 172 -192 172q-112 0 -262 -62l-82 266q191 86 403 86q252 0 375 -123q113 -113 113 -337v-664h-357v113q-107 -136 -282 -136zM498 213q67 0 110 44t43 118v82q-58 26 -125 26
t-105 -37t-38 -100v-8q0 -57 31.5 -90t83.5 -35zM203 1214v218h688v-218h-688z" />
    <glyph glyph-name="Abreve" unicode="&#x102;" horiz-adv-x="1396" 
d="M8 0l504 1442h373l506 -1442h-387l-84 258h-451l-82 -258h-379zM561 553h266l-133 420zM698 1528q-154 0 -247.5 72t-108.5 210h213q31 -86 143 -86q113 0 144 86h211q-13 -138 -107 -210t-248 -72z" />
    <glyph glyph-name="abreve" unicode="&#x103;" horiz-adv-x="1083" 
d="M365 -23q-141 0 -232.5 89.5t-91.5 246.5v15q0 173 102 261.5t277 88.5q131 0 229 -43v27q0 172 -192 172q-112 0 -262 -62l-82 266q191 86 403 86q252 0 375 -123q113 -113 113 -337v-664h-357v113q-107 -136 -282 -136zM498 213q67 0 110 44t43 118v82q-58 26 -125 26
t-105 -37t-38 -100v-8q0 -57 31.5 -90t83.5 -35zM547 1196q-152 0 -248.5 80.5t-108.5 228.5h207q29 -108 150 -108q120 0 149 108h207q-12 -148 -108 -228.5t-248 -80.5z" />
    <glyph glyph-name="Aogonek" unicode="&#x104;" horiz-adv-x="1396" 
d="M1403 -158v-164q-55 -8 -119 -8q-133 0 -209 44.5t-76 119.5q0 84 82 166h-77l-84 258h-451l-82 -258h-379l504 1442h373l506 -1442h-78q-41 -49 -41 -92q0 -36 31 -51.5t100 -14.5zM561 553h266l-133 420z" />
    <glyph glyph-name="aogonek" unicode="&#x105;" horiz-adv-x="1083" 
d="M1016 -158v-164q-55 -8 -119 -8q-133 0 -209 44.5t-76 119.5q0 84 82 166h-47v113q-107 -136 -282 -136q-141 0 -232.5 89.5t-91.5 246.5v15q0 173 102 261.5t277 88.5q131 0 229 -43v27q0 172 -192 172q-112 0 -262 -62l-82 266q191 86 403 86q252 0 375 -123
q113 -113 113 -337v-664h-78q-41 -49 -41 -92q0 -36 31 -51.5t100 -14.5zM498 213q67 0 110 44t43 118v82q-58 26 -125 26t-105 -37t-38 -100v-8q0 -57 31.5 -90t83.5 -35z" />
    <glyph glyph-name="Cacute" unicode="&#x106;" horiz-adv-x="1263" 
d="M717 -25q-137 0 -256.5 51.5t-207 144t-137.5 230t-50 301.5v25q0 163 51 300.5t140 231.5t211.5 146.5t262.5 52.5q304 0 496 -225l-238 -252q-111 135 -252 135q-129 0 -211 -106.5t-82 -286.5v-8q0 -187 82 -292.5t211 -105.5q84 0 143.5 37t118.5 105l234 -238
q-201 -246 -516 -246zM563 1532l201 305l340 -104l-275 -201h-266z" />
    <glyph glyph-name="cacute" unicode="&#x107;" horiz-adv-x="997" 
d="M430 1202l195 346l325 -106l-278 -240h-242zM567 -27q-226 0 -370 159t-144 405v22q0 247 148.5 409t380.5 162q247 0 393 -186l-211 -223q-74 94 -170 94q-84 0 -136 -71.5t-52 -184.5v-6q0 -120 52 -192t140 -72q53 0 93 24t81 70l205 -211q-155 -199 -410 -199z" />
    <glyph glyph-name="Cdotaccent" unicode="&#x10a;" horiz-adv-x="1263" 
d="M547 1534v264h315v-264h-315zM717 -25q-137 0 -256.5 51.5t-207 144t-137.5 230t-50 301.5v25q0 163 51 300.5t140 231.5t211.5 146.5t262.5 52.5q304 0 496 -225l-238 -252q-111 135 -252 135q-129 0 -211 -106.5t-82 -286.5v-8q0 -187 82 -292.5t211 -105.5
q84 0 143.5 37t118.5 105l234 -238q-201 -246 -516 -246z" />
    <glyph glyph-name="cdotaccent" unicode="&#x10b;" horiz-adv-x="997" 
d="M567 -27q-226 0 -370 159t-144 405v22q0 247 148.5 409t380.5 162q247 0 393 -186l-211 -223q-74 94 -170 94q-84 0 -136 -71.5t-52 -184.5v-6q0 -120 52 -192t140 -72q53 0 93 24t81 70l205 -211q-155 -199 -410 -199zM410 1202v275h311v-275h-311z" />
    <glyph glyph-name="Ccaron" unicode="&#x10c;" horiz-adv-x="1263" 
d="M717 -25q-137 0 -256.5 51.5t-207 144t-137.5 230t-50 301.5v25q0 163 51 300.5t140 231.5t211.5 146.5t262.5 52.5q304 0 496 -225l-238 -252q-111 135 -252 135q-129 0 -211 -106.5t-82 -286.5v-8q0 -187 82 -292.5t211 -105.5q84 0 143.5 37t118.5 105l234 -238
q-201 -246 -516 -246zM1081 1815l-221 -283h-311l-221 283h241l138 -103l137 103h237z" />
    <glyph glyph-name="ccaron" unicode="&#x10d;" horiz-adv-x="997" 
d="M938 1513l-231 -311h-283l-231 311h227l147 -116l148 116h223zM567 -27q-226 0 -370 159t-144 405v22q0 247 148.5 409t380.5 162q247 0 393 -186l-211 -223q-74 94 -170 94q-84 0 -136 -71.5t-52 -184.5v-6q0 -120 52 -192t140 -72q53 0 93 24t81 70l205 -211
q-155 -199 -410 -199z" />
    <glyph glyph-name="Dcaron" unicode="&#x10e;" horiz-adv-x="1366" 
d="M106 0v1434h472q341 0 531.5 -190t190.5 -511v-24q0 -322 -193 -515.5t-536 -193.5h-465zM582 1104h-107v-774h107q159 0 250.5 95t91.5 282v18q0 188 -91.5 283.5t-250.5 95.5zM1036 1800l-221 -282h-311l-221 282h241l138 -102l137 102h237z" />
    <glyph glyph-name="dcaron" unicode="&#x10f;" horiz-adv-x="1212" 
d="M1202 1184l23 397h237v-6l-116 -391h-144zM471 -23q-85 0 -159.5 35t-132 102.5t-91 175t-33.5 242.5v37q0 137 33.5 246t91 176.5t131.5 103t158 35.5q101 0 170 -41.5t127 -113.5v508h358v-1483h-358v141q-60 -78 -128 -121t-167 -43zM592 285q77 0 127.5 71t50.5 185
v26q0 114 -50.5 185t-127.5 71q-80 0 -130 -70.5t-50 -185.5v-26q0 -115 50 -185.5t130 -70.5z" />
    <glyph glyph-name="Dcroat" unicode="&#x110;" horiz-adv-x="1443" 
d="M182 0v573h-135v297h135v564h473q340 0 531.5 -190t191.5 -511v-24q0 -211 -85 -370.5t-250.5 -249t-393.5 -89.5h-467zM741 575h-196v-251h114q161 0 251.5 97t90.5 286v18q0 192 -90.5 288.5t-251.5 96.5h-114v-244h196v-291z" />
    <glyph glyph-name="dcroat" unicode="&#x111;" horiz-adv-x="1212" 
d="M508 1204v185h258v94h358v-94h107v-187h-107v-1202h-358v141q-60 -78 -128 -121t-167 -43q-85 0 -159.5 35t-132 102.5t-91 175t-33.5 242.5v37q0 137 33.5 246t91 176.5t131.5 103t158 35.5q101 0 170 -41.5t127 -113.5v229h-258zM592 285q77 0 127.5 71t50.5 185v26
q0 114 -50.5 185t-127.5 71q-80 0 -130 -70.5t-50 -185.5v-26q0 -115 50 -185.5t130 -70.5z" />
    <glyph glyph-name="Emacron" unicode="&#x112;" horiz-adv-x="1167" 
d="M238 1530v225h729v-225h-729zM106 0v1434h988v-324h-623v-236h561v-305h-561v-245h631v-324h-996z" />
    <glyph glyph-name="emacron" unicode="&#x113;" horiz-adv-x="1095" 
d="M588 -25q-238 0 -387.5 154t-149.5 410v22q0 250 141 411t361 161q120 0 214.5 -44.5t154.5 -124.5t91 -187.5t31 -235.5q0 -74 -2 -103h-643q20 -88 76 -134t137 -46q116 0 228 104l172 -204q-171 -183 -424 -183zM395 641h314q-7 102 -48.5 157.5t-107.5 55.5
q-65 0 -106.5 -54.5t-51.5 -158.5zM209 1214v218h688v-218h-688z" />
    <glyph glyph-name="Ebreve" unicode="&#x114;" horiz-adv-x="1167" 
d="M604 1513q-154 0 -247.5 72t-108.5 211h213q31 -86 143 -86q113 0 144 86h210q-13 -138 -106.5 -210.5t-247.5 -72.5zM106 0v1434h988v-324h-623v-236h561v-305h-561v-245h631v-324h-996z" />
    <glyph glyph-name="ebreve" unicode="&#x115;" horiz-adv-x="1095" 
d="M588 -25q-238 0 -387.5 154t-149.5 410v22q0 250 141 411t361 161q120 0 214.5 -44.5t154.5 -124.5t91 -187.5t31 -235.5q0 -74 -2 -103h-643q20 -88 76 -134t137 -46q116 0 228 104l172 -204q-171 -183 -424 -183zM395 641h314q-7 102 -48.5 157.5t-107.5 55.5
q-65 0 -106.5 -54.5t-51.5 -158.5zM553 1196q-152 0 -248 80.5t-108 228.5h206q29 -108 150 -108q120 0 149 108h207q-12 -148 -108 -228.5t-248 -80.5z" />
    <glyph glyph-name="Edotaccent" unicode="&#x116;" horiz-adv-x="1167" 
d="M444 1520v264h316v-264h-316zM106 0v1434h988v-324h-623v-236h561v-305h-561v-245h631v-324h-996z" />
    <glyph glyph-name="edotaccent" unicode="&#x117;" horiz-adv-x="1095" 
d="M588 -25q-238 0 -387.5 154t-149.5 410v22q0 250 141 411t361 161q120 0 214.5 -44.5t154.5 -124.5t91 -187.5t31 -235.5q0 -74 -2 -103h-643q20 -88 76 -134t137 -46q116 0 228 104l172 -204q-171 -183 -424 -183zM395 641h314q-7 102 -48.5 157.5t-107.5 55.5
q-65 0 -106.5 -54.5t-51.5 -158.5zM397 1202v275h312v-275h-312z" />
    <glyph glyph-name="Eogonek" unicode="&#x118;" horiz-adv-x="1167" 
d="M106 0v1434h988v-324h-623v-236h561v-305h-561v-245h631v-324h-90q-41 -49 -41 -92q0 -36 31 -51.5t100 -14.5v-164q-55 -8 -119 -8q-133 0 -209 44.5t-76 119.5q0 84 82 166h-674z" />
    <glyph glyph-name="eogonek" unicode="&#x119;" horiz-adv-x="1095" 
d="M840 362l172 -204q-15 -16 -31 -32t-36 -35.5t-32 -31.5q-92 -85 -92 -145q0 -40 31 -57t100 -15v-164q-55 -8 -118 -8q-131 0 -207 44t-76 118q0 69 65 143h-28q-238 0 -387.5 154t-149.5 410v22q0 250 141 411t361 161q120 0 214.5 -44.5t154.5 -124.5t91 -187.5
t31 -235.5q0 -85 -2 -103h-643q20 -88 76 -134t137 -46q116 0 228 104zM395 641h314q-7 102 -48.5 157.5t-107.5 55.5q-65 0 -106.5 -54.5t-51.5 -158.5z" />
    <glyph glyph-name="Ecaron" unicode="&#x11a;" horiz-adv-x="1167" 
d="M979 1800l-221 -282h-312l-221 282h242l137 -102l137 102h238zM106 0v1434h988v-324h-623v-236h561v-305h-561v-245h631v-324h-996z" />
    <glyph glyph-name="ecaron" unicode="&#x11b;" horiz-adv-x="1095" 
d="M926 1513l-232 -311h-282l-232 311h228l147 -116l147 116h224zM588 -25q-238 0 -387.5 154t-149.5 410v22q0 250 141 411t361 161q120 0 214.5 -44.5t154.5 -124.5t91 -187.5t31 -235.5q0 -74 -2 -103h-643q20 -88 76 -134t137 -46q116 0 228 104l172 -204
q-171 -183 -424 -183zM395 641h314q-7 102 -48.5 157.5t-107.5 55.5q-65 0 -106.5 -54.5t-51.5 -158.5z" />
    <glyph glyph-name="Gbreve" unicode="&#x11e;" horiz-adv-x="1359" 
d="M731 1528q-154 0 -247.5 72t-108.5 210h213q31 -86 143 -86t143 86h211q-13 -138 -106.5 -210t-247.5 -72zM754 -25q-146 0 -272.5 50.5t-218.5 143t-144.5 229.5t-52.5 302v29q0 211 90 378t247 259t353 92q149 0 267 -43t226 -131l-205 -280q-64 57 -129 87.5
t-151 30.5q-138 0 -230 -110.5t-92 -286.5v-20q0 -191 91.5 -299.5t234.5 -108.5q101 0 166 43v213h-227v285h573v-684q-242 -179 -526 -179z" />
    <glyph glyph-name="gbreve" unicode="&#x11f;" horiz-adv-x="1212" 
d="M557 -313q-257 0 -471 100l100 258q155 -86 334 -86q250 0 250 238v55q-124 -160 -299 -160q-86 0 -161 32.5t-132 94t-90 160t-33 221.5v16q0 125 33 224.5t90 162t129.5 95t155.5 32.5q101 0 171.5 -40t131.5 -113v131h358v-883q0 -270 -129 -399q-142 -139 -438 -139z
M590 381q82 0 131 62t49 163v6q0 103 -49 165.5t-131 62.5q-81 0 -129.5 -63t-48.5 -165v-6q0 -102 49 -163.5t129 -61.5zM625 1196q-152 0 -248.5 80.5t-108.5 228.5h207q29 -108 150 -108q120 0 149 108h207q-12 -148 -108 -228.5t-248 -80.5z" />
    <glyph glyph-name="Gdotaccent" unicode="&#x120;" horiz-adv-x="1359" 
d="M573 1534v264h316v-264h-316zM754 -25q-146 0 -272.5 50.5t-218.5 143t-144.5 229.5t-52.5 302v29q0 211 90 378t247 259t353 92q149 0 267 -43t226 -131l-205 -280q-64 57 -129 87.5t-151 30.5q-138 0 -230 -110.5t-92 -286.5v-20q0 -191 91.5 -299.5t234.5 -108.5
q101 0 166 43v213h-227v285h573v-684q-242 -179 -526 -179z" />
    <glyph glyph-name="gdotaccent" unicode="&#x121;" horiz-adv-x="1212" 
d="M557 -313q-257 0 -471 100l100 258q155 -86 334 -86q250 0 250 238v55q-124 -160 -299 -160q-86 0 -161 32.5t-132 94t-90 160t-33 221.5v16q0 125 33 224.5t90 162t129.5 95t155.5 32.5q101 0 171.5 -40t131.5 -113v131h358v-883q0 -270 -129 -399q-142 -139 -438 -139z
M590 381q82 0 131 62t49 163v6q0 103 -49 165.5t-131 62.5q-81 0 -129.5 -63t-48.5 -165v-6q0 -102 49 -163.5t129 -61.5zM469 1202v275h311v-275h-311z" />
    <glyph glyph-name="Gcommaaccent" unicode="&#x122;" horiz-adv-x="1359" 
d="M580 -584l-17 107q82 9 116.5 38.5t31.5 84.5h-131v252h301v-209q0 -137 -76.5 -201t-224.5 -72zM754 -25q-146 0 -272.5 50.5t-218.5 143t-144.5 229.5t-52.5 302v29q0 211 90 378t247 259t353 92q149 0 267 -43t226 -131l-205 -280q-64 57 -129 87.5t-151 30.5
q-138 0 -230 -110.5t-92 -286.5v-20q0 -191 91.5 -299.5t234.5 -108.5q101 0 166 43v213h-227v285h573v-684q-242 -179 -526 -179z" />
    <glyph glyph-name="gcommaaccent" unicode="&#x123;" horiz-adv-x="1212" 
d="M772 1681l16 -106q-82 -9 -116 -38.5t-31 -84.5h131v-252h-301v209q0 137 76.5 200.5t224.5 71.5zM557 -313q-257 0 -471 100l100 258q155 -86 334 -86q250 0 250 238v55q-124 -160 -299 -160q-86 0 -161 32.5t-132 94t-90 160t-33 221.5v16q0 125 33 224.5t90 162
t129.5 95t155.5 32.5q101 0 171.5 -40t131.5 -113v131h358v-883q0 -270 -129 -399q-142 -139 -438 -139zM590 381q82 0 131 62t49 163v6q0 103 -49 165.5t-131 62.5q-81 0 -129.5 -63t-48.5 -165v-6q0 -102 49 -163.5t129 -61.5z" />
    <glyph glyph-name="Hbar" unicode="&#x126;" horiz-adv-x="1376" 
d="M8 1055v225h107v154h368v-158h410v158h369v-154h108v-225h-108v-1055h-369v553h-410v-553h-368v1055h-107zM483 887h410v172h-410v-172z" />
    <glyph glyph-name="hbar" unicode="&#x127;" horiz-adv-x="1148" 
d="M705 1204h-256v-241q116 167 292 167q154 0 241 -98t87 -268v-764h-360v653q0 75 -34.5 116.5t-92.5 41.5q-60 0 -96.5 -41.5t-36.5 -116.5v-653h-361v1202h-106v187h106v94h361v-94h256v-185z" />
    <glyph glyph-name="Imacron" unicode="&#x12a;" horiz-adv-x="595" 
d="M113 0v1434h368v-1434h-368zM-66 1530v225h730v-225h-730z" />
    <glyph glyph-name="imacron" unicode="&#x12b;" horiz-adv-x="550" 
d="M96 0v1108h359v-1108h-359zM-68 1206v217h689v-217h-689z" />
    <glyph glyph-name="Ibreve" unicode="&#x12c;" horiz-adv-x="595" 
d="M113 0v1434h368v-1434h-368zM299 1513q-154 0 -247.5 72t-108.5 211h213q31 -86 143 -86t143 86h211q-13 -138 -106.5 -210.5t-247.5 -72.5z" />
    <glyph glyph-name="ibreve" unicode="&#x12d;" horiz-adv-x="550" 
d="M96 0v1108h359v-1108h-359zM276 1188q-152 0 -248 80.5t-108 228.5h207q29 -108 149 -108q121 0 150 108h207q-12 -148 -108.5 -228.5t-248.5 -80.5z" />
    <glyph glyph-name="Iogonek" unicode="&#x12e;" horiz-adv-x="595" 
d="M113 0v1434h368v-1434h-63q-41 -49 -41 -92q0 -36 31 -51.5t100 -14.5v-164q-55 -8 -119 -8q-133 0 -209 44.5t-76 119.5q0 84 82 166h-73z" />
    <glyph glyph-name="iogonek" unicode="&#x12f;" horiz-adv-x="550" 
d="M96 0v1108h359v-1108h-64q-41 -49 -41 -92q0 -36 31 -51.5t100 -14.5v-164q-55 -8 -119 -8q-133 0 -208.5 44t-75.5 120q0 84 82 166h-64zM90 1202v281h371v-281h-371z" />
    <glyph glyph-name="Idotaccent" unicode="&#x130;" horiz-adv-x="595" 
d="M113 0v1434h368v-1434h-368zM141 1520v264h316v-264h-316z" />
    <glyph glyph-name="dotlessi" unicode="&#x131;" horiz-adv-x="550" 
d="M96 0v1108h359v-1108h-359z" />
    <glyph glyph-name="Kcommaaccent" unicode="&#x136;" horiz-adv-x="1302" 
d="M504 -569l-17 106q82 9 116.5 38.5t31.5 84.5h-131v252h301v-209q0 -137 -76.5 -200.5t-224.5 -71.5zM106 0v1434h369v-568l395 568h424l-444 -611l459 -823h-430l-289 522l-115 -149v-373h-369z" />
    <glyph glyph-name="kcommaaccent" unicode="&#x137;" horiz-adv-x="1095" 
d="M414 -571l-17 106q82 9 116.5 38.5t31.5 84.5h-131v252h301v-209q0 -137 -76.5 -200.5t-224.5 -71.5zM88 0v1483h361v-746l247 371h398l-318 -442l324 -666h-395l-177 383l-79 -109v-274h-361z" />
    <glyph glyph-name="Lacute" unicode="&#x139;" horiz-adv-x="1077" 
d="M186 1518l201 305l340 -105l-274 -200h-267zM106 0v1434h369v-1102h563v-332h-932z" />
    <glyph glyph-name="lacute" unicode="&#x13a;" horiz-adv-x="550" 
d="M139 1548l201 305l340 -104l-274 -201h-267zM96 0v1483h359v-1483h-359z" />
    <glyph glyph-name="Lcommaaccent" unicode="&#x13b;" horiz-adv-x="1077" 
d="M422 -571l-16 106q82 9 116 38.5t31 84.5h-131v252h301v-209q0 -137 -76.5 -200.5t-224.5 -71.5zM106 0v1434h369v-1102h563v-332h-932z" />
    <glyph glyph-name="lcommaaccent" unicode="&#x13c;" horiz-adv-x="550" 
d="M129 -571l-16 106q82 9 116 38.5t31 84.5h-131v252h301v-209q0 -137 -76.5 -200.5t-224.5 -71.5zM96 0v1483h359v-1483h-359z" />
    <glyph glyph-name="Lcaron" unicode="&#x13d;" horiz-adv-x="1077" 
d="M569 1038l23 398h237v-6l-116 -392h-144zM106 0v1434h369v-1102h563v-332h-932z" />
    <glyph glyph-name="lcaron" unicode="&#x13e;" horiz-adv-x="550" 
d="M532 1184l23 397h238v-6l-117 -391h-144zM96 0v1483h359v-1483h-359z" />
    <glyph glyph-name="Ldot" unicode="&#x13f;" horiz-adv-x="1077" 
d="M692 655v306h295v-306h-295zM106 0v1434h369v-1102h563v-332h-932z" />
    <glyph glyph-name="ldot" unicode="&#x140;" horiz-adv-x="786" 
d="M541 608v303h256v-303h-256zM96 0v1483h359v-1483h-359z" />
    <glyph glyph-name="Lslash" unicode="&#x141;" horiz-adv-x="1155" 
d="M801 745l-256 -116v-297h565v-332h-932v463l-131 -57v339l131 58v631h367v-465l256 116v-340z" />
    <glyph glyph-name="lslash" unicode="&#x142;" horiz-adv-x="716" 
d="M680 737l-141 -67v-670h-359v498l-143 -68v330l143 67v656h359v-484l141 70v-332z" />
    <glyph glyph-name="Nacute" unicode="&#x143;" horiz-adv-x="1396" 
d="M557 1518l201 305l340 -105l-275 -200h-266zM106 0v1434h347l477 -721v721h362v-1434h-327l-496 752v-752h-363z" />
    <glyph glyph-name="nacute" unicode="&#x144;" horiz-adv-x="1148" 
d="M440 1202l195 346l326 -106l-279 -240h-242zM88 0v1108h361v-147q117 169 292 169q154 0 241 -98t87 -268v-764h-360v653q0 75 -34.5 116.5t-92.5 41.5q-60 0 -96.5 -41.5t-36.5 -116.5v-653h-361z" />
    <glyph glyph-name="Ncommaaccent" unicode="&#x145;" horiz-adv-x="1396" 
d="M549 -569l-17 106q82 9 116.5 38.5t31.5 84.5h-131v252h301v-209q0 -137 -76.5 -200.5t-224.5 -71.5zM106 0v1434h347l477 -721v721h362v-1434h-327l-496 752v-752h-363z" />
    <glyph glyph-name="ncommaaccent" unicode="&#x146;" horiz-adv-x="1148" 
d="M428 -571l-16 106q82 9 116 38.5t31 84.5h-131v252h301v-209q0 -137 -76.5 -200.5t-224.5 -71.5zM88 0v1108h361v-147q117 169 292 169q154 0 241 -98t87 -268v-764h-360v653q0 75 -34.5 116.5t-92.5 41.5q-60 0 -96.5 -41.5t-36.5 -116.5v-653h-361z" />
    <glyph glyph-name="Ncaron" unicode="&#x147;" horiz-adv-x="1396" 
d="M1073 1800l-221 -282h-311l-222 282h242l137 -102l138 102h237zM106 0v1434h347l477 -721v721h362v-1434h-327l-496 752v-752h-363z" />
    <glyph glyph-name="ncaron" unicode="&#x148;" horiz-adv-x="1148" 
d="M950 1513l-231 -311h-283l-231 311h227l148 -116l147 116h223zM88 0v1108h361v-147q117 169 292 169q154 0 241 -98t87 -268v-764h-360v653q0 75 -34.5 116.5t-92.5 41.5q-60 0 -96.5 -41.5t-36.5 -116.5v-653h-361z" />
    <glyph glyph-name="Omacron" unicode="&#x14c;" horiz-adv-x="1460" 
d="M365 1544v225h729v-225h-729zM729 -27q-192 0 -343 91.5t-235.5 257.5t-84.5 378v31q0 211 85.5 377.5t237.5 259t342 92.5q291 0 477.5 -203t186.5 -524v-31q0 -211 -86 -377.5t-237.5 -259t-342.5 -92.5zM731 307q130 0 208.5 107t78.5 291v22q0 184 -80 291.5
t-209 107.5t-208 -106.5t-79 -290.5v-22q0 -184 80 -292t209 -108z" />
    <glyph glyph-name="omacron" unicode="&#x14d;" horiz-adv-x="1179" 
d="M246 1214v218h688v-218h-688zM588 -27q-233 0 -384 159t-151 405v30q0 245 152.5 405.5t386.5 160.5q233 0 384.5 -159t151.5 -405v-30q0 -161 -69 -290.5t-192.5 -202.5t-278.5 -73zM592 283q85 0 134.5 71.5t49.5 188.5v18q0 116 -51 189t-135 73q-86 0 -135 -71
t-49 -189v-18q0 -116 51 -189t135 -73z" />
    <glyph glyph-name="Obreve" unicode="&#x14e;" horiz-adv-x="1460" 
d="M729 1528q-154 0 -247.5 72t-108.5 210h213q31 -86 143 -86t143 86h211q-13 -138 -106.5 -210t-247.5 -72zM729 -27q-192 0 -343 91.5t-235.5 257.5t-84.5 378v31q0 211 85.5 377.5t237.5 259t342 92.5q291 0 477.5 -203t186.5 -524v-31q0 -211 -86 -377.5t-237.5 -259
t-342.5 -92.5zM731 307q130 0 208.5 107t78.5 291v22q0 184 -80 291.5t-209 107.5t-208 -106.5t-79 -290.5v-22q0 -184 80 -292t209 -108z" />
    <glyph glyph-name="obreve" unicode="&#x14f;" horiz-adv-x="1179" 
d="M588 -27q-233 0 -384 159t-151 405v30q0 245 152.5 405.5t386.5 160.5q233 0 384.5 -159t151.5 -405v-30q0 -161 -69 -290.5t-192.5 -202.5t-278.5 -73zM592 283q85 0 134.5 71.5t49.5 188.5v18q0 116 -51 189t-135 73q-86 0 -135 -71t-49 -189v-18q0 -116 51 -189
t135 -73zM590 1196q-152 0 -248.5 80.5t-108.5 228.5h207q29 -108 150 -108q120 0 149 108h207q-12 -148 -108 -228.5t-248 -80.5z" />
    <glyph glyph-name="Ohungarumlaut" unicode="&#x150;" horiz-adv-x="1460" 
d="M729 -27q-192 0 -343 91.5t-235.5 257.5t-84.5 378v31q0 211 85.5 377.5t237.5 259t342 92.5q291 0 477.5 -203t186.5 -524v-31q0 -211 -86 -377.5t-237.5 -259t-342.5 -92.5zM731 307q130 0 208.5 107t78.5 291v22q0 184 -80 291.5t-209 107.5t-208 -106.5t-79 -290.5
v-22q0 -184 80 -292t209 -108zM768 1532l115 182l-238 -182h-239l192 305l299 -98l64 98l311 -102l-264 -203h-240z" />
    <glyph glyph-name="ohungarumlaut" unicode="&#x151;" horiz-adv-x="1179" 
d="M588 -27q-233 0 -384 159t-151 405v30q0 245 152.5 405.5t386.5 160.5q233 0 384.5 -159t151.5 -405v-30q0 -161 -69 -290.5t-192.5 -202.5t-278.5 -73zM279 1202l186 346l291 -102l55 102l303 -104l-268 -242h-221l118 221l-243 -221h-221zM592 283q85 0 134.5 71.5
t49.5 188.5v18q0 116 -51 189t-135 73q-86 0 -135 -71t-49 -189v-18q0 -116 51 -189t135 -73z" />
    <glyph glyph-name="OE" unicode="&#x152;" horiz-adv-x="1900" 
d="M791 0q-341 0 -533 189.5t-192 510.5v25q0 323 193.5 516t535.5 193h1032v-324h-590v-236h528v-305h-528v-245h598v-324h-1044zM780 326h90v782h-90q-156 0 -247 -97t-91 -284v-18q0 -187 91.5 -285t246.5 -98z" />
    <glyph glyph-name="oe" unicode="&#x153;" horiz-adv-x="1814" 
d="M575 -27q-223 0 -372.5 160t-149.5 404v30q0 243 152 404.5t377 161.5q222 0 358 -158q130 158 338 158q157 0 268 -78.5t164 -210t53 -303.5q0 -74 -2 -103h-643q20 -88 75.5 -134t139.5 -46q119 0 226 104l172 -204q-171 -183 -420 -183q-236 0 -375 158
q-138 -160 -361 -160zM1114 641h313q-7 102 -48 157.5t-107 55.5q-65 0 -106.5 -54.5t-51.5 -158.5zM588 283q85 0 132.5 71t47.5 189v18q0 117 -49.5 189.5t-132.5 72.5q-84 0 -132 -71.5t-48 -188.5v-18q0 -116 50.5 -189t131.5 -73z" />
    <glyph glyph-name="Racute" unicode="&#x154;" horiz-adv-x="1284" 
d="M106 0v1434h564q287 0 430 -146q125 -125 125 -336v-10q0 -294 -256 -422l295 -520h-416l-244 444h-131v-444h-367zM473 737h182q93 0 146 50t53 137v4q0 90 -53.5 137t-147.5 47h-180v-375zM483 1518l201 305l340 -105l-274 -200h-267z" />
    <glyph glyph-name="racute" unicode="&#x155;" horiz-adv-x="772" 
d="M272 1194l195 346l326 -106l-279 -240h-242zM88 0v1108h361v-201q43 110 113 166.5t181 50.5v-393h-24q-270 0 -270 -325v-406h-361z" />
    <glyph glyph-name="Rcommaaccent" unicode="&#x156;" horiz-adv-x="1284" 
d="M106 0v1434h564q287 0 430 -146q125 -125 125 -336v-10q0 -294 -256 -422l295 -520h-416l-244 444h-131v-444h-367zM473 737h182q93 0 146 50t53 137v4q0 90 -53.5 137t-147.5 47h-180v-375zM479 -569l-16 106q82 9 116 38.5t31 84.5h-131v252h301v-209
q0 -137 -76.5 -200.5t-224.5 -71.5z" />
    <glyph glyph-name="rcommaaccent" unicode="&#x157;" horiz-adv-x="772" 
d="M131 -571l-16 106q82 9 116 38.5t31 84.5h-131v252h301v-209q0 -137 -76.5 -200.5t-224.5 -71.5zM88 0v1108h361v-201q43 110 113 166.5t181 50.5v-393h-24q-270 0 -270 -325v-406h-361z" />
    <glyph glyph-name="Rcaron" unicode="&#x158;" horiz-adv-x="1284" 
d="M106 0v1434h564q287 0 430 -146q125 -125 125 -336v-10q0 -294 -256 -422l295 -520h-416l-244 444h-131v-444h-367zM1001 1800l-221 -282h-311l-221 282h241l138 -102l137 102h237zM473 737h182q93 0 146 50t53 137v4q0 90 -53.5 137t-147.5 47h-180v-375z" />
    <glyph glyph-name="rcaron" unicode="&#x159;" horiz-adv-x="772" 
d="M780 1505l-231 -311h-283l-231 311h227l148 -116l147 116h223zM88 0v1108h361v-201q43 110 113 166.5t181 50.5v-393h-24q-270 0 -270 -325v-406h-361z" />
    <glyph glyph-name="Sacute" unicode="&#x15a;" horiz-adv-x="1159" 
d="M586 -20q-341 0 -584 210l197 269q197 -162 389 -162q72 0 110.5 28.5t38.5 75.5v2q0 44 -44 76.5t-167 75.5q-90 31 -152.5 57.5t-125 65.5t-99.5 83.5t-60 106.5t-23 138v6q0 197 139.5 319.5t372.5 122.5q296 0 512 -174l-187 -274q-169 131 -334 131q-61 0 -96 -27
t-35 -68v-2q0 -47 45.5 -79.5t182.5 -83.5q109 -35 185 -72.5t137 -89.5t90.5 -122t29.5 -159v-4q0 -207 -144.5 -328.5t-377.5 -121.5zM444 1532l201 305l340 -104l-274 -201h-267z" />
    <glyph glyph-name="sacute" unicode="&#x15b;" horiz-adv-x="927" 
d="M336 1202l194 346l326 -106l-278 -240h-242zM469 -23q-257 0 -459 150l135 240q174 -121 322 -121q44 0 67 17t23 44v4q0 30 -33.5 50t-128.5 57q-83 31 -137 58t-103.5 67.5t-73.5 96t-24 128.5v4q0 165 114 260.5t298 95.5q224 0 405 -118l-131 -244q-150 94 -272 94
q-41 0 -62.5 -16t-21.5 -41v-4q0 -28 34.5 -49t129.5 -60q83 -31 138.5 -60.5t103.5 -70t71 -93.5t23 -122v-4q0 -171 -114 -267t-304 -96z" />
    <glyph glyph-name="Scedilla" unicode="&#x15e;" horiz-adv-x="1159" 
d="M584 -326l-295 111l149 207q-251 36 -436 198l197 269q197 -162 389 -162q72 0 110.5 28.5t38.5 75.5v2q0 44 -44 76.5t-167 75.5q-90 31 -152.5 57.5t-125 65.5t-99.5 83.5t-60 106.5t-23 138v6q0 197 139.5 319.5t372.5 122.5q296 0 512 -174l-187 -274
q-169 131 -334 131q-61 0 -96 -27t-35 -68v-2q0 -47 45.5 -79.5t182.5 -83.5q109 -35 185 -72.5t137 -89.5t90.5 -122t29.5 -159v-4q0 -183 -114 -300t-306 -142z" />
    <glyph glyph-name="scedilla" unicode="&#x15f;" horiz-adv-x="927" 
d="M463 -326l-295 111l149 207q-171 33 -307 135l135 240q174 -121 322 -121q44 0 67 17t23 44v4q0 30 -33.5 50t-128.5 57q-83 31 -137 58t-103.5 67.5t-73.5 96t-24 128.5v4q0 165 114 260.5t298 95.5q224 0 405 -118l-131 -244q-150 94 -272 94q-41 0 -62.5 -16
t-21.5 -41v-4q0 -28 34.5 -49t129.5 -60q83 -31 138.5 -60.5t103.5 -70t71 -93.5t23 -122v-4q0 -148 -85.5 -240t-234.5 -114z" />
    <glyph glyph-name="Scaron" unicode="&#x160;" horiz-adv-x="1159" 
d="M586 -20q-341 0 -584 210l197 269q197 -162 389 -162q72 0 110.5 28.5t38.5 75.5v2q0 44 -44 76.5t-167 75.5q-90 31 -152.5 57.5t-125 65.5t-99.5 83.5t-60 106.5t-23 138v6q0 197 139.5 319.5t372.5 122.5q296 0 512 -174l-187 -274q-169 131 -334 131q-61 0 -96 -27
t-35 -68v-2q0 -47 45.5 -79.5t182.5 -83.5q109 -35 185 -72.5t137 -89.5t90.5 -122t29.5 -159v-4q0 -207 -144.5 -328.5t-377.5 -121.5zM963 1815l-222 -283h-311l-221 283h242l137 -103l137 103h238z" />
    <glyph glyph-name="scaron" unicode="&#x161;" horiz-adv-x="927" 
d="M846 1513l-232 -311h-282l-232 311h228l147 -116l148 116h223zM469 -23q-257 0 -459 150l135 240q174 -121 322 -121q44 0 67 17t23 44v4q0 30 -33.5 50t-128.5 57q-83 31 -137 58t-103.5 67.5t-73.5 96t-24 128.5v4q0 165 114 260.5t298 95.5q224 0 405 -118l-131 -244
q-150 94 -272 94q-41 0 -62.5 -16t-21.5 -41v-4q0 -28 34.5 -49t129.5 -60q83 -31 138.5 -60.5t103.5 -70t71 -93.5t23 -122v-4q0 -171 -114 -267t-304 -96z" />
    <glyph glyph-name="Tcommaaccent" unicode="&#x162;" horiz-adv-x="1159" 
d="M430 -571l-16 106q82 9 116 38.5t31 84.5h-131v252h301v-209q0 -137 -76.5 -200.5t-224.5 -71.5zM395 0v1102h-354v332h1077v-332h-354v-1102h-369z" />
    <glyph glyph-name="tcommaaccent" unicode="&#x163;" horiz-adv-x="772" 
d="M266 -580l-16 107q82 9 116 38.5t31 84.5h-131v252h301v-209q0 -137 -76.5 -201t-224.5 -72zM475 -20q-159 0 -244.5 75.5t-85.5 245.5v518h-110v289h110v276h359v-276h217v-289h-217v-436q0 -49 22.5 -70.5t69.5 -21.5q59 0 123 28v-282q-103 -57 -244 -57z" />
    <glyph glyph-name="Tcaron" unicode="&#x164;" horiz-adv-x="1159" 
d="M956 1800l-221 -282h-311l-221 282h241l138 -102l137 102h237zM395 0v1102h-354v332h1077v-332h-354v-1102h-369z" />
    <glyph glyph-name="tcaron" unicode="&#x165;" horiz-adv-x="772" 
d="M586 1184l22 397h238v-6l-117 -391h-143zM475 -20q-159 0 -244.5 75.5t-85.5 245.5v518h-110v289h110v276h359v-276h217v-289h-217v-436q0 -49 22.5 -70.5t69.5 -21.5q59 0 123 28v-282q-103 -57 -244 -57z" />
    <glyph glyph-name="Umacron" unicode="&#x16a;" horiz-adv-x="1349" 
d="M307 1530v225h729v-225h-729zM672 -25q-272 0 -426 147.5t-154 444.5v867h371v-871q0 -126 56.5 -190t154.5 -64q100 0 155.5 62t55.5 186v877h372v-861q0 -153 -42 -268.5t-120 -187t-184 -107t-239 -35.5z" />
    <glyph glyph-name="umacron" unicode="&#x16b;" horiz-adv-x="1148" 
d="M408 -23q-154 0 -241 98.5t-87 268.5v764h360v-653q0 -75 34.5 -116.5t92.5 -41.5q60 0 96.5 41.5t36.5 116.5v653h361v-1108h-361v145q-116 -168 -292 -168zM225 1206v217h688v-217h-688z" />
    <glyph glyph-name="Ubreve" unicode="&#x16c;" horiz-adv-x="1349" 
d="M674 1499q-154 0 -248 72.5t-109 210.5h213q31 -86 144 -86q112 0 143 86h211q-13 -138 -106.5 -210.5t-247.5 -72.5zM672 -25q-272 0 -426 147.5t-154 444.5v867h371v-871q0 -126 56.5 -190t154.5 -64q100 0 155.5 62t55.5 186v877h372v-861q0 -153 -42 -268.5
t-120 -187t-184 -107t-239 -35.5z" />
    <glyph glyph-name="ubreve" unicode="&#x16d;" horiz-adv-x="1148" 
d="M408 -23q-154 0 -241 98.5t-87 268.5v764h360v-653q0 -75 34.5 -116.5t92.5 -41.5q60 0 96.5 41.5t36.5 116.5v653h361v-1108h-361v145q-116 -168 -292 -168zM569 1188q-152 0 -248 80.5t-108 228.5h207q29 -108 149 -108q121 0 150 108h207q-12 -148 -108.5 -228.5
t-248.5 -80.5z" />
    <glyph glyph-name="Uring" unicode="&#x16e;" horiz-adv-x="1349" 
d="M672 -25q-272 0 -426 147.5t-154 444.5v867h371v-871q0 -126 56.5 -190t154.5 -64q100 0 155.5 62t55.5 186v877h372v-861q0 -153 -42 -268.5t-120 -187t-184 -107t-239 -35.5zM672 1483q-110 0 -185 67t-75 168q0 100 75 167t185 67t185 -67t75 -167q0 -101 -75 -168
t-185 -67zM672 1599q58 0 93.5 33.5t35.5 85.5q0 51 -36 85t-93 34t-93 -34t-36 -85q0 -52 35.5 -85.5t93.5 -33.5z" />
    <glyph glyph-name="uring" unicode="&#x16f;" horiz-adv-x="1148" 
d="M569 1176q-103 0 -174 69t-71 170q0 100 71 169t174 69t174.5 -69t71.5 -169q0 -101 -71.5 -170t-174.5 -69zM569 1288q52 0 87.5 36.5t35.5 90.5q0 53 -35.5 90t-87.5 37t-87.5 -37t-35.5 -90q0 -54 35.5 -90.5t87.5 -36.5zM408 -23q-154 0 -241 98.5t-87 268.5v764h360
v-653q0 -75 34.5 -116.5t92.5 -41.5q60 0 96.5 41.5t36.5 116.5v653h361v-1108h-361v145q-116 -168 -292 -168z" />
    <glyph glyph-name="Uhungarumlaut" unicode="&#x170;" horiz-adv-x="1349" 
d="M672 -25q-272 0 -426 147.5t-154 444.5v867h371v-871q0 -126 56.5 -190t154.5 -64q100 0 155.5 62t55.5 186v877h372v-861q0 -153 -42 -268.5t-120 -187t-184 -107t-239 -35.5zM705 1518l114 182l-237 -182h-240l193 305l299 -99l63 99l311 -103l-264 -202h-239z" />
    <glyph glyph-name="uhungarumlaut" unicode="&#x171;" horiz-adv-x="1148" 
d="M408 -23q-154 0 -241 98.5t-87 268.5v764h360v-653q0 -75 34.5 -116.5t92.5 -41.5q60 0 96.5 41.5t36.5 116.5v653h361v-1108h-361v145q-116 -168 -292 -168zM254 1194l186 346l291 -102l55 102l304 -104l-269 -242h-221l119 221l-244 -221h-221z" />
    <glyph glyph-name="Uogonek" unicode="&#x172;" horiz-adv-x="1349" 
d="M872 -158v-164q-55 -8 -118 -8q-133 0 -209 44.5t-76 119.5q0 78 68 152q-212 33 -328.5 178.5t-116.5 402.5v867h371v-871q0 -126 56.5 -190t154.5 -64q100 0 155.5 62t55.5 186v877h372v-861q0 -274 -129.5 -420.5t-359.5 -170.5q-27 -39 -27 -74q0 -36 31 -51.5
t100 -14.5z" />
    <glyph glyph-name="uogonek" unicode="&#x173;" horiz-adv-x="1148" 
d="M408 -23q-154 0 -241 98.5t-87 268.5v764h360v-653q0 -75 34.5 -116.5t92.5 -41.5q60 0 96.5 41.5t36.5 116.5v653h361v-1108h-74q-41 -49 -41 -92q0 -36 31 -51.5t100 -14.5v-164q-55 -8 -119 -8q-133 0 -208.5 44t-75.5 120q0 84 82 166h-56v145q-116 -168 -292 -168z
" />
    <glyph glyph-name="Wcircumflex" unicode="&#x174;" horiz-adv-x="1980" 
d="M420 -8l-400 1442h390l200 -830l224 834h317l225 -834l201 830h381l-399 -1442h-338l-232 792l-231 -792h-338zM612 1518l222 282h311l221 -282h-242l-137 102l-137 -102h-238z" />
    <glyph glyph-name="wcircumflex" unicode="&#x175;" horiz-adv-x="1562" 
d="M408 1194l231 311h283l231 -311h-227l-148 117l-147 -117h-223zM313 -8l-293 1116h353l123 -561l139 565h293l141 -567l125 563h350l-297 -1116h-315l-152 561l-153 -561h-314z" />
    <glyph glyph-name="Ycircumflex" unicode="&#x176;" horiz-adv-x="1282" 
d="M457 0v537l-461 897h407l240 -519l242 519h401l-461 -893v-541h-368zM262 1518l221 282h312l221 -282h-242l-137 102l-137 -102h-238z" />
    <glyph glyph-name="ycircumflex" unicode="&#x177;" horiz-adv-x="1124" 
d="M571 455l172 653h365l-350 -1077q-62 -189 -147.5 -267.5t-237.5 -78.5q-155 0 -293 77l92 256q79 -45 139 -45q57 0 80 43l-375 1092h373zM195 1194l231 311h283l231 -311h-227l-148 117l-147 -117h-223z" />
    <glyph glyph-name="Ydieresis" unicode="&#x178;" horiz-adv-x="1282" 
d="M457 0v537l-461 897h407l240 -519l242 519h401l-461 -893v-541h-368zM690 1520v264h305v-264h-305zM283 1520v264h305v-264h-305z" />
    <glyph glyph-name="Zacute" unicode="&#x179;" horiz-adv-x="1214" 
d="M70 0v276l596 836h-578v322h1061v-277l-598 -835h598v-322h-1079zM477 1518l201 305l340 -105l-275 -200h-266z" />
    <glyph glyph-name="zacute" unicode="&#x17a;" horiz-adv-x="995" 
d="M373 1194l194 346l326 -106l-279 -240h-241zM53 0v242l441 575h-426v291h880v-242l-442 -575h442v-291h-895z" />
    <glyph glyph-name="Zdotaccent" unicode="&#x17b;" horiz-adv-x="1214" 
d="M463 1520v264h315v-264h-315zM70 0v276l596 836h-578v322h1061v-277l-598 -835h598v-322h-1079z" />
    <glyph glyph-name="zdotaccent" unicode="&#x17c;" horiz-adv-x="995" 
d="M53 0v242l441 575h-426v291h880v-242l-442 -575h442v-291h-895zM354 1194v274h312v-274h-312z" />
    <glyph glyph-name="Zcaron" unicode="&#x17d;" horiz-adv-x="1214" 
d="M997 1800l-221 -282h-311l-221 282h241l138 -102l137 102h237zM70 0v276l596 836h-578v322h1061v-277l-598 -835h598v-322h-1079z" />
    <glyph glyph-name="zcaron" unicode="&#x17e;" horiz-adv-x="995" 
d="M883 1505l-232 -311h-282l-232 311h228l147 -116l147 116h224zM53 0v242l441 575h-426v291h880v-242l-442 -575h442v-291h-895z" />
    <glyph glyph-name="Aringacute" unicode="&#x1fa;" horiz-adv-x="1396" 
d="M8 0l479 1376q-49 58 -49 140q0 100 75 166.5t185 66.5t185 -66.5t75 -166.5q0 -78 -49 -140l482 -1376h-387l-84 258h-451l-82 -258h-379zM555 1794l205 279l340 -105l-289 -174h-256zM561 553h266l-133 420zM698 1397q58 0 94.5 33.5t36.5 85.5q0 51 -36.5 84.5
t-94.5 33.5q-57 0 -93 -33.5t-36 -84.5t36 -85t93 -34z" />
    <glyph glyph-name="aringacute" unicode="&#x1fb;" horiz-adv-x="1083" 
d="M410 1737l204 293l320 -103l-279 -190h-245zM365 -23q-141 0 -232.5 89.5t-91.5 246.5v15q0 173 102 261.5t277 88.5q131 0 229 -43v27q0 172 -192 172q-112 0 -262 -62l-82 266q191 86 403 86q252 0 375 -123q113 -113 113 -337v-664h-357v113q-107 -136 -282 -136z
M498 213q67 0 110 44t43 118v82q-58 26 -125 26t-105 -37t-38 -100v-8q0 -57 31.5 -90t83.5 -35zM547 1200q-103 0 -174.5 69.5t-71.5 170.5q0 100 71.5 168.5t174.5 68.5t174.5 -68.5t71.5 -168.5q0 -101 -71.5 -170.5t-174.5 -69.5zM547 1313q52 0 87.5 36.5t35.5 90.5
q0 53 -35.5 90t-87.5 37t-87.5 -37t-35.5 -90q0 -54 35.5 -90.5t87.5 -36.5z" />
    <glyph glyph-name="AEacute" unicode="&#x1fc;" horiz-adv-x="1873" 
d="M936 1518l201 305l340 -105l-275 -200h-266zM-10 0l628 1434h1182v-324h-590v-236h531v-305h-531v-245h600v-324h-962v258h-381l-109 -258h-368zM592 553h256v563h-25z" />
    <glyph glyph-name="aeacute" unicode="&#x1fd;" horiz-adv-x="1687" 
d="M700 1194l195 346l326 -106l-279 -240h-242zM403 -23q-159 0 -260.5 89.5t-101.5 252.5v11q0 172 102 260t277 88q131 0 229 -43v27q0 84 -48.5 128t-143.5 44q-122 0 -262 -66l-82 272q193 84 401 84q222 0 334 -118q124 127 303 127q117 0 210 -45t152.5 -124.5
t91 -187t31.5 -235.5q0 -5 -1 -46t-1 -57h-645q20 -88 76 -134t139 -46q119 0 226 104l172 -204q-171 -183 -422 -183q-122 0 -224.5 44.5t-171.5 127.5q-79 -79 -177.5 -124.5t-203.5 -45.5zM985 641h313q-6 102 -47 157.5t-108 55.5q-64 0 -106 -54.5t-52 -158.5zM506 217
q95 0 182 96q-23 63 -33 144q-65 26 -127 26q-68 0 -106.5 -36.5t-38.5 -100.5v-8q0 -56 34 -88.5t89 -32.5z" />
    <glyph glyph-name="Oslashacute" unicode="&#x1fe;" horiz-adv-x="1460" 
d="M1149 1444h254l-168 -221q160 -200 160 -490v-31q0 -211 -86 -377.5t-237.5 -259t-342.5 -92.5q-201 0 -354 101l-64 -84h-252l166 219q-159 202 -159 491v31q0 211 85.5 377.5t237.5 259t342 92.5q193 0 352 -100zM436 707q0 -111 27 -193l420 571q-65 50 -154 50
q-132 0 -212.5 -109t-80.5 -295v-24zM733 299q132 0 211.5 108.5t79.5 294.5v25q0 102 -29 191l-417 -570q67 -49 155 -49zM588 1532l200 305l340 -104l-274 -201h-266z" />
    <glyph glyph-name="oslashacute" unicode="&#x1ff;" horiz-adv-x="1179" 
d="M922 1118h231l-145 -182q120 -152 120 -367v-30q0 -161 -69 -290.5t-192.5 -202.5t-278.5 -73q-157 0 -281 76l-49 -59h-231l145 180q-119 150 -119 367v30q0 245 152.5 405.5t386.5 160.5q153 0 280 -78zM453 1202l194 346l326 -106l-279 -240h-241zM391 543
q0 -61 10 -97l281 365q-46 27 -92 27q-91 0 -145 -75.5t-54 -197.5v-22zM592 268q91 0 145 76.5t54 196.5v22q0 41 -11 94l-280 -364q42 -25 92 -25z" />
    <glyph glyph-name="Scommaaccent" unicode="&#x218;" horiz-adv-x="1159" 
d="M428 -584l-16 107q82 9 116 38.5t31 84.5h-131v252h301v-209q0 -137 -76.5 -201t-224.5 -72zM586 -20q-341 0 -584 210l197 269q197 -162 389 -162q72 0 110.5 28.5t38.5 75.5v2q0 44 -44 76.5t-167 75.5q-90 31 -152.5 57.5t-125 65.5t-99.5 83.5t-60 106.5t-23 138v6
q0 197 139.5 319.5t372.5 122.5q296 0 512 -174l-187 -274q-169 131 -334 131q-61 0 -96 -27t-35 -68v-2q0 -47 45.5 -79.5t182.5 -83.5q109 -35 185 -72.5t137 -89.5t90.5 -122t29.5 -159v-4q0 -207 -144.5 -328.5t-377.5 -121.5z" />
    <glyph glyph-name="scommaaccent" unicode="&#x219;" horiz-adv-x="927" 
d="M317 -580l-16 107q82 9 116.5 38.5t31.5 84.5h-132v252h301v-209q0 -137 -76.5 -201t-224.5 -72zM469 -23q-257 0 -459 150l135 240q174 -121 322 -121q44 0 67 17t23 44v4q0 30 -33.5 50t-128.5 57q-83 31 -137 58t-103.5 67.5t-73.5 96t-24 128.5v4q0 165 114 260.5
t298 95.5q224 0 405 -118l-131 -244q-150 94 -272 94q-41 0 -62.5 -16t-21.5 -41v-4q0 -28 34.5 -49t129.5 -60q83 -31 138.5 -60.5t103.5 -70t71 -93.5t23 -122v-4q0 -171 -114 -267t-304 -96z" />
    <glyph glyph-name="schwa" unicode="&#x259;" horiz-adv-x="1095" 
d="M508 1133q238 0 387 -153.5t149 -410.5v-22q0 -165 -64 -295.5t-178 -203.5t-259 -73q-120 0 -214.5 44.5t-155 124.5t-91.5 187.5t-31 235.5q0 74 2 103h643q-20 88 -76 134t-137 46q-114 0 -227 -105l-172 205q171 183 424 183zM700 467h-313q7 -102 48.5 -157.5
t107.5 -55.5q65 0 106 54t51 159z" />
    <glyph glyph-name="circumflex" unicode="&#x2c6;" 
d="M139 1194l232 311h282l232 -311h-228l-147 117l-148 -117h-223z" />
    <glyph glyph-name="caron" unicode="&#x2c7;" 
d="M885 1505l-232 -311h-282l-232 311h228l147 -116l148 116h223z" />
    <glyph glyph-name="breve" unicode="&#x2d8;" 
d="M512 1188q-152 0 -248 80.5t-108 228.5h206q29 -108 150 -108t150 108h206q-12 -148 -108 -228.5t-248 -80.5z" />
    <glyph glyph-name="dotaccent" unicode="&#x2d9;" 
d="M356 1194v274h312v-274h-312z" />
    <glyph glyph-name="ring" unicode="&#x2da;" 
d="M512 1192q-103 0 -174.5 69.5t-71.5 170.5q0 100 71.5 168.5t174.5 68.5t174.5 -68.5t71.5 -168.5q0 -101 -71.5 -170.5t-174.5 -69.5zM512 1305q52 0 87.5 36.5t35.5 90.5q0 53 -35.5 90t-87.5 37t-87.5 -37t-35.5 -90q0 -54 35.5 -90.5t87.5 -36.5z" />
    <glyph glyph-name="ogonek" unicode="&#x2db;" 
d="M737 -158v-164q-55 -8 -119 -8q-133 0 -208.5 44t-75.5 120q0 95 112 195l224 -4q-64 -69 -64 -117q0 -36 31 -51.5t100 -14.5z" />
    <glyph glyph-name="tilde" unicode="&#x2dc;" 
d="M678 1192q-59 0 -172 41q-93 35 -119 35q-36 0 -53.5 -19t-36.5 -69l-172 43q27 145 78.5 213.5t142.5 68.5q59 0 172 -41q90 -34 119 -34q35 0 53.5 19.5t36.5 68.5l172 -43q-27 -146 -79 -214.5t-142 -68.5z" />
    <glyph glyph-name="hungarumlaut" unicode="&#x2dd;" 
d="M102 1194l187 346l291 -102l55 102l303 -104l-268 -242h-221l118 221l-243 -221h-222z" />
    <glyph glyph-name="commaaccent" unicode="&#x326;" 
d="M362 -571l-16 106q82 9 116.5 38.5t31.5 84.5h-132v252h302v-209q0 -137 -77 -200.5t-225 -71.5z" />
    <glyph glyph-name="Wgrave" unicode="&#x1e80;" horiz-adv-x="1980" 
d="M1128 1518h-264l-276 200l342 105zM420 -8l-400 1442h390l200 -830l224 834h317l225 -834l201 830h381l-399 -1442h-338l-232 792l-231 -792h-338z" />
    <glyph glyph-name="wgrave" unicode="&#x1e81;" horiz-adv-x="1562" 
d="M313 -8l-293 1116h353l123 -561l139 565h293l141 -567l125 563h350l-297 -1116h-315l-152 561l-153 -561h-314zM672 1194l-279 240l326 106l194 -346h-241z" />
    <glyph glyph-name="Wacute" unicode="&#x1e82;" horiz-adv-x="1980" 
d="M846 1518l201 305l339 -105l-274 -200h-266zM420 -8l-400 1442h390l200 -830l224 834h317l225 -834l201 830h381l-399 -1442h-338l-232 792l-231 -792h-338z" />
    <glyph glyph-name="wacute" unicode="&#x1e83;" horiz-adv-x="1562" 
d="M643 1194l195 346l325 -106l-278 -240h-242zM313 -8l-293 1116h353l123 -561l139 565h293l141 -567l125 563h350l-297 -1116h-315l-152 561l-153 -561h-314z" />
    <glyph glyph-name="Wdieresis" unicode="&#x1e84;" horiz-adv-x="1980" 
d="M1038 1520v264h305v-264h-305zM631 1520v264h305v-264h-305zM420 -8l-400 1442h390l200 -830l224 834h317l225 -834l201 830h381l-399 -1442h-338l-232 792l-231 -792h-338z" />
    <glyph glyph-name="wdieresis" unicode="&#x1e85;" horiz-adv-x="1562" 
d="M821 1194v274h301v-274h-301zM434 1194v274h301v-274h-301zM313 -8l-293 1116h353l123 -561l139 565h293l141 -567l125 563h350l-297 -1116h-315l-152 561l-153 -561h-314z" />
    <glyph glyph-name="Ygrave" unicode="&#x1ef2;" horiz-adv-x="1282" 
d="M457 0v537l-461 897h407l240 -519l242 519h401l-461 -893v-541h-368zM780 1518h-264l-276 200l342 105z" />
    <glyph glyph-name="ygrave" unicode="&#x1ef3;" horiz-adv-x="1124" 
d="M571 455l172 653h365l-350 -1077q-62 -189 -147.5 -267.5t-237.5 -78.5q-155 0 -293 77l92 256q79 -45 139 -45q57 0 80 43l-375 1092h373zM461 1194l-279 240l326 106l194 -346h-241z" />
    <glyph glyph-name="enspace" unicode="&#x2002;" 
 />
    <glyph glyph-name="emspace" unicode="&#x2003;" horiz-adv-x="2048" 
 />
    <glyph glyph-name="threeperemspace" unicode="&#x2004;" horiz-adv-x="681" 
 />
    <glyph glyph-name="fourperemspace" unicode="&#x2005;" horiz-adv-x="512" 
 />
    <glyph glyph-name="thinspace" unicode="&#x2009;" horiz-adv-x="262" 
 />
    <glyph glyph-name="hairspace" unicode="&#x200a;" horiz-adv-x="145" 
 />
    <glyph glyph-name="endash" unicode="&#x2013;" horiz-adv-x="1030" 
d="M74 481v318h882v-318h-882z" />
    <glyph glyph-name="emdash" unicode="&#x2014;" horiz-adv-x="1695" 
d="M74 481v318h1548v-318h-1548z" />
    <glyph glyph-name="quoteleft" unicode="&#x2018;" horiz-adv-x="540" 
d="M74 735v309q0 198 101 292.5t290 107.5l31 -139q-102 -15 -152 -65t-47 -126h156v-379h-379z" />
    <glyph glyph-name="quoteright" unicode="&#x2019;" horiz-adv-x="540" 
d="M74 727l-29 139q101 15 151 64.5t48 126.5h-158v377h379v-310q0 -199 -100.5 -292.5t-290.5 -104.5z" />
    <glyph glyph-name="quotesinglbase" unicode="&#x201a;" horiz-adv-x="546" 
d="M70 -330l-29 140q103 15 153.5 64.5t47.5 125.5h-156v377h379v-307q0 -199 -102 -293t-293 -107z" />
    <glyph glyph-name="quotedblleft" unicode="&#x201c;" horiz-adv-x="1032" 
d="M573 735v309q0 197 99 292t286 108l31 -139q-101 -15 -149 -65t-45 -126h151v-379h-373zM74 735v309q0 197 99 292t286 108l30 -139q-101 -15 -149 -65t-45 -126h151v-379h-372z" />
    <glyph glyph-name="quotedblright" unicode="&#x201d;" horiz-adv-x="1032" 
d="M573 727l-28 139q100 15 148 64.5t46 126.5h-153v377h372v-310q0 -197 -99 -291.5t-286 -105.5zM74 727l-29 139q101 15 149.5 64.5t45.5 126.5h-154v377h373v-310q0 -197 -99 -291.5t-286 -105.5z" />
    <glyph glyph-name="quotedblbase" unicode="&#x201e;" horiz-adv-x="1042" 
d="M571 -330l-28 140q103 15 152 64.5t46 125.5h-153v377h373v-307q0 -198 -100 -292.5t-290 -107.5zM70 -330l-29 140q101 15 151 64.5t48 125.5h-154v377h373v-307q0 -198 -99.5 -292.5t-289.5 -107.5z" />
    <glyph glyph-name="dagger" unicode="&#x2020;" horiz-adv-x="743" 
d="M272 467l23 547l-225 -23v207l223 -24l-33 260h223l-30 -260l223 24v-207l-225 23l22 -547h-201z" />
    <glyph glyph-name="daggerdbl" unicode="&#x2021;" horiz-adv-x="780" 
d="M279 0l32 258l-223 -22v206l227 -22l-30 297l30 297l-227 -23v207l223 -24l-32 260h223l-31 -260l221 24v-207l-225 23l29 -297l-29 -297l225 22v-206l-221 22l31 -258h-223z" />
    <glyph glyph-name="bullet" unicode="&#x2022;" horiz-adv-x="937" 
d="M469 375q-133 0 -224 96t-91 244v14q0 148 91 244t224 96t224 -96t91 -244v-14q0 -148 -91 -244t-224 -96z" />
    <glyph glyph-name="ellipsis" unicode="&#x2026;" horiz-adv-x="1619" 
d="M1163 0v373h375v-373h-375zM623 0v373h374v-373h-374zM82 0v373h375v-373h-375z" />
    <glyph glyph-name="perthousand" unicode="&#x2030;" horiz-adv-x="2357" 
d="M391 881q46 0 72 46t26 128v12q0 81 -27 127.5t-73 46.5t-72 -46t-26 -126v-14q0 -79 27.5 -126.5t72.5 -47.5zM389 672q-145 0 -236.5 107t-91.5 274v16q0 168 91.5 275.5t238.5 107.5t237.5 -107t90.5 -276v-14q0 -168 -91.5 -275.5t-238.5 -107.5zM1423 1434
l-526 -766l-444 -668h-242l524 760l447 674h241zM1245 193q45 0 71.5 46.5t26.5 125.5v14q0 80 -27 127t-73 47q-47 0 -73.5 -46t-26.5 -128v-12q0 -81 28 -127.5t74 -46.5zM1243 -18q-146 0 -237 107.5t-91 275.5v14q0 169 91 276t239 107q147 0 237.5 -107t90.5 -274v-16
q0 -167 -91.5 -275t-238.5 -108zM1968 193q46 0 72 46t26 126v14q0 80 -27 127t-73 47q-47 0 -72.5 -46t-25.5 -128v-12q0 -81 27.5 -127.5t72.5 -46.5zM1966 -18q-146 0 -237 107.5t-91 275.5v14q0 169 91 276t239 107q147 0 237.5 -107t90.5 -274v-16q0 -167 -91.5 -275
t-238.5 -108z" />
    <glyph glyph-name="guilsinglleft" unicode="&#x2039;" horiz-adv-x="663" 
d="M377 74l-324 436v80l324 438l233 -115l-221 -362l223 -361z" />
    <glyph glyph-name="guilsinglright" unicode="&#x203a;" horiz-adv-x="663" 
d="M289 74l-236 114l223 361l-223 362l236 115l323 -436v-80z" />
    <glyph glyph-name="Euro" unicode="&#x20ac;" horiz-adv-x="1216" 
d="M1188 1276l-207 -244q-43 49 -89.5 76t-109.5 27q-145 0 -204 -154h290v-207h-327v-39v-35v-32h327v-209h-295q27 -80 83 -120t130 -40q111 0 205 109l199 -238q-175 -197 -424 -197q-217 0 -365 128.5t-194 353.5h-146v213h123v26v41v39h-123v213h152
q50 218 198.5 345.5t362.5 127.5q247 0 414 -184z" />
    <glyph glyph-name="published" unicode="&#x2117;" horiz-adv-x="1499" 
d="M750 -27q-187 0 -339 95.5t-238.5 263.5t-86.5 373v22q0 205 87 373t239.5 264t339.5 96q186 0 337.5 -95.5t237.5 -263t86 -372.5v-22q0 -154 -51 -290t-139 -233.5t-211 -154t-262 -56.5zM750 53q166 0 299 86t206.5 235t73.5 333v24q0 183 -73 331t-205.5 233
t-298.5 85q-167 0 -300.5 -85.5t-207.5 -234.5t-74 -333v-25q0 -183 74 -331t207 -233t299 -85zM492 328v800h284q144 0 229 -72.5t85 -205.5v-6q0 -135 -89 -208t-227 -75h-76v-233h-206zM698 729h70q53 0 84 29.5t31 81.5v2q0 54 -30.5 83t-84.5 29h-70v-225z" />
    <glyph glyph-name="servicemark" unicode="&#x2120;" horiz-adv-x="1273" 
d="M610 799v635h174l127 -230l127 230h174v-635h-165v360l-134 -235h-6l-135 235v-360h-162zM291 788q-73 0 -143 25t-123 68l77 120q98 -73 191 -73q69 0 69 47q0 21 -19.5 34.5t-76.5 32.5q-109 36 -162 78t-53 121q0 89 64 146t172 57q134 0 233 -76l-76 -125
q-87 60 -159 60q-32 0 -49 -13t-17 -33q0 -21 19 -33t77 -32q111 -37 163 -81t52 -122q0 -93 -66 -147t-173 -54z" />
    <glyph glyph-name="trademark" unicode="&#x2122;" horiz-adv-x="1261" 
d="M596 799v635h174l127 -230l129 230h172v-635h-164v360l-135 -235h-6l-133 235v-360h-164zM188 799v483h-157v152h481v-152h-156v-483h-168z" />
    <glyph glyph-name="minus" unicode="&#x2212;" horiz-adv-x="1163" 
d="M1069 559h-975v324h975v-324z" />
    <glyph glyph-name="Q.alt" horiz-adv-x="1460" 
d="M1042 -172l-149 168q-77 -21 -166 -21q-190 0 -340.5 91.5t-235.5 257t-85 376.5v31q0 211 85.5 377.5t237.5 259t342 92.5q291 0 477.5 -203t186.5 -524v-31q0 -155 -47.5 -287t-135.5 -229l308 -352v-6h-478zM731 305q130 0 208.5 106.5t78.5 290.5v25q0 184 -80 291.5
t-209 107.5t-208 -106.5t-79 -290.5v-22q0 -184 80 -293t209 -109z" />
    <glyph glyph-name="a.alt" horiz-adv-x="1212" 
d="M471 -23q-85 0 -159.5 35t-132 102.5t-91 175t-33.5 242.5v37q0 137 33.5 246t91 176.5t131.5 103t158 35.5q101 0 170 -41.5t127 -113.5v133h358v-1108h-358v141q-60 -78 -128 -121t-167 -43zM592 285q78 0 128 70t50 188v22q0 117 -50 187.5t-128 70.5
q-79 0 -129.5 -70t-50.5 -188v-22q0 -118 50.5 -188t129.5 -70z" />
    <glyph glyph-name="aacute.alt" horiz-adv-x="1212" 
d="M489 1202l195 346l326 -106l-279 -240h-242zM471 -23q-85 0 -159.5 35t-132 102.5t-91 175t-33.5 242.5v37q0 137 33.5 246t91 176.5t131.5 103t158 35.5q101 0 170 -41.5t127 -113.5v133h358v-1108h-358v141q-60 -78 -128 -121t-167 -43zM592 285q78 0 128 70t50 188v22
q0 117 -50 187.5t-128 70.5q-79 0 -129.5 -70t-50.5 -188v-22q0 -118 50.5 -188t129.5 -70z" />
    <glyph glyph-name="abreve.alt" horiz-adv-x="1212" 
d="M471 -23q-85 0 -159.5 35t-132 102.5t-91 175t-33.5 242.5v37q0 137 33.5 246t91 176.5t131.5 103t158 35.5q101 0 170 -41.5t127 -113.5v133h358v-1108h-358v141q-60 -78 -128 -121t-167 -43zM592 285q78 0 128 70t50 188v22q0 117 -50 187.5t-128 70.5
q-79 0 -129.5 -70t-50.5 -188v-22q0 -118 50.5 -188t129.5 -70zM625 1196q-152 0 -248.5 80.5t-108.5 228.5h207q29 -108 150 -108q120 0 149 108h207q-12 -148 -108 -228.5t-248 -80.5z" />
    <glyph glyph-name="acircumflex.alt" horiz-adv-x="1212" 
d="M252 1202l231 311h283l231 -311h-227l-147 117l-148 -117h-223zM471 -23q-85 0 -159.5 35t-132 102.5t-91 175t-33.5 242.5v37q0 137 33.5 246t91 176.5t131.5 103t158 35.5q101 0 170 -41.5t127 -113.5v133h358v-1108h-358v141q-60 -78 -128 -121t-167 -43zM592 285
q78 0 128 70t50 188v22q0 117 -50 187.5t-128 70.5q-79 0 -129.5 -70t-50.5 -188v-22q0 -118 50.5 -188t129.5 -70z" />
    <glyph glyph-name="adieresis.alt" horiz-adv-x="1212" 
d="M668 1202v275h301v-275h-301zM281 1202v275h301v-275h-301zM471 -23q-85 0 -159.5 35t-132 102.5t-91 175t-33.5 242.5v37q0 137 33.5 246t91 176.5t131.5 103t158 35.5q101 0 170 -41.5t127 -113.5v133h358v-1108h-358v141q-60 -78 -128 -121t-167 -43zM592 285
q78 0 128 70t50 188v22q0 117 -50 187.5t-128 70.5q-79 0 -129.5 -70t-50.5 -188v-22q0 -118 50.5 -188t129.5 -70z" />
    <glyph glyph-name="agrave.alt" horiz-adv-x="1212" 
d="M471 -23q-85 0 -159.5 35t-132 102.5t-91 175t-33.5 242.5v37q0 137 33.5 246t91 176.5t131.5 103t158 35.5q101 0 170 -41.5t127 -113.5v133h358v-1108h-358v141q-60 -78 -128 -121t-167 -43zM592 285q78 0 128 70t50 188v22q0 117 -50 187.5t-128 70.5
q-79 0 -129.5 -70t-50.5 -188v-22q0 -118 50.5 -188t129.5 -70zM518 1202l-278 240l325 106l195 -346h-242z" />
    <glyph glyph-name="amacron.alt" horiz-adv-x="1212" 
d="M471 -23q-85 0 -159.5 35t-132 102.5t-91 175t-33.5 242.5v37q0 137 33.5 246t91 176.5t131.5 103t158 35.5q101 0 170 -41.5t127 -113.5v133h358v-1108h-358v141q-60 -78 -128 -121t-167 -43zM592 285q78 0 128 70t50 188v22q0 117 -50 187.5t-128 70.5
q-79 0 -129.5 -70t-50.5 -188v-22q0 -118 50.5 -188t129.5 -70zM281 1214v218h688v-218h-688z" />
    <glyph glyph-name="aogonek.alt" horiz-adv-x="1212" 
d="M1141 -158v-164q-55 -8 -119 -8q-133 0 -209 44.5t-76 119.5q0 84 82 166h-53v141q-60 -78 -128 -121t-167 -43q-85 0 -159.5 35t-132 102.5t-91 175t-33.5 242.5v37q0 137 33.5 246t91 176.5t131.5 103t158 35.5q101 0 170 -41.5t127 -113.5v133h358v-1108h-73
q-41 -49 -41 -92q0 -36 31 -51.5t100 -14.5zM592 285q78 0 128 70t50 188v22q0 117 -50 187.5t-128 70.5q-79 0 -129.5 -70t-50.5 -188v-22q0 -118 50.5 -188t129.5 -70z" />
    <glyph glyph-name="aring.alt" horiz-adv-x="1212" 
d="M625 1200q-103 0 -174.5 69.5t-71.5 170.5q0 100 71.5 168.5t174.5 68.5t174 -68.5t71 -168.5q0 -101 -71 -170.5t-174 -69.5zM625 1313q52 0 87.5 36.5t35.5 90.5q0 53 -35.5 90t-87.5 37t-87.5 -37t-35.5 -90q0 -54 35.5 -90.5t87.5 -36.5zM471 -23q-85 0 -159.5 35
t-132 102.5t-91 175t-33.5 242.5v37q0 137 33.5 246t91 176.5t131.5 103t158 35.5q101 0 170 -41.5t127 -113.5v133h358v-1108h-358v141q-60 -78 -128 -121t-167 -43zM592 285q78 0 128 70t50 188v22q0 117 -50 187.5t-128 70.5q-79 0 -129.5 -70t-50.5 -188v-22
q0 -118 50.5 -188t129.5 -70z" />
    <glyph glyph-name="aring.alt2" horiz-adv-x="1083" 
d="M367 -23q-143 0 -234.5 90t-91.5 248v13q0 173 102 261.5t277 88.5q131 0 229 -43v27q0 172 -192 172q-115 0 -260 -62l-84 266q130 58 235 72q-47 63 -47 141q0 101 72 170.5t174 69.5q103 0 174.5 -69.5t71.5 -170.5q0 -91 -60 -157q93 -28 158 -93q115 -115 115 -335
v-666h-359v113q-109 -136 -280 -136zM498 215q68 -2 111.5 42t43.5 118v82q-54 26 -125 26q-68 0 -106.5 -36.5t-38.5 -100.5v-8q0 -58 31.5 -90.5t83.5 -32.5zM547 1124q52 0 87.5 36.5t35.5 90.5t-35.5 91.5t-87.5 37.5q-51 0 -87 -37.5t-36 -91.5t36 -90.5t87 -36.5z" />
    <glyph glyph-name="aringacute.alt" horiz-adv-x="1212" 
d="M489 1737l205 293l320 -103l-279 -190h-246zM625 1200q-103 0 -174.5 69.5t-71.5 170.5q0 100 71.5 168.5t174.5 68.5t174 -68.5t71 -168.5q0 -101 -71 -170.5t-174 -69.5zM625 1313q52 0 87.5 36.5t35.5 90.5q0 53 -35.5 90t-87.5 37t-87.5 -37t-35.5 -90
q0 -54 35.5 -90.5t87.5 -36.5zM471 -23q-85 0 -159.5 35t-132 102.5t-91 175t-33.5 242.5v37q0 137 33.5 246t91 176.5t131.5 103t158 35.5q101 0 170 -41.5t127 -113.5v133h358v-1108h-358v141q-60 -78 -128 -121t-167 -43zM592 285q78 0 128 70t50 188v22q0 117 -50 187.5
t-128 70.5q-79 0 -129.5 -70t-50.5 -188v-22q0 -118 50.5 -188t129.5 -70z" />
    <glyph glyph-name="aringacute.alt2" horiz-adv-x="1083" 
d="M410 1550l204 293l320 -100l-279 -193h-245zM367 -23q-143 0 -234.5 90t-91.5 248v13q0 173 102 261.5t277 88.5q131 0 229 -43v27q0 172 -192 172q-115 0 -260 -62l-84 266q130 58 235 72q-47 63 -47 141q0 101 72 170.5t174 69.5q103 0 174.5 -69.5t71.5 -170.5
q0 -91 -60 -157q93 -28 158 -93q115 -115 115 -335v-666h-359v113q-109 -136 -280 -136zM498 215q68 -2 111.5 42t43.5 118v82q-54 26 -125 26q-68 0 -106.5 -36.5t-38.5 -100.5v-8q0 -58 31.5 -90.5t83.5 -32.5zM547 1124q52 0 87.5 36.5t35.5 90.5t-35.5 91.5t-87.5 37.5
q-51 0 -87 -37.5t-36 -91.5t36 -90.5t87 -36.5z" />
    <glyph glyph-name="atilde.alt" horiz-adv-x="1212" 
d="M471 -23q-85 0 -159.5 35t-132 102.5t-91 175t-33.5 242.5v37q0 137 33.5 246t91 176.5t131.5 103t158 35.5q101 0 170 -41.5t127 -113.5v133h358v-1108h-358v141q-60 -78 -128 -121t-167 -43zM592 285q78 0 128 70t50 188v22q0 117 -50 187.5t-128 70.5
q-79 0 -129.5 -70t-50.5 -188v-22q0 -118 50.5 -188t129.5 -70zM797 1200q-59 0 -172 41q-93 35 -119 35q-36 0 -53.5 -19t-36.5 -69l-172 43q27 145 78.5 213.5t142.5 68.5q62 0 172 -40q93 -35 119 -35q35 0 53.5 19.5t36.5 68.5l172 -43q-27 -146 -79 -214.5t-142 -68.5z
" />
    <glyph glyph-name="three.alt" horiz-adv-x="1105" 
d="M543 -27q-308 0 -520 199l196 256q141 -131 301 -131q81 0 129.5 39.5t48.5 101.5v4q0 66 -56 103t-173 37h-119v288h117q105 0 157 38t52 102v2q0 58 -46 92.5t-120 34.5q-123 0 -258 -127l-193 239q202 209 492 209q215 0 348 -104.5t133 -272.5v-4q0 -121 -57.5 -206
t-155.5 -130q240 -89 240 -331v-4q0 -191 -140.5 -313t-375.5 -122z" />
    <glyph glyph-name="registered.alt" horiz-adv-x="1499" 
d="M750 -27q-187 0 -339 95.5t-238.5 263.5t-86.5 373v22q0 205 87 373t239.5 264t339.5 96q186 0 337.5 -95.5t237.5 -263t86 -372.5v-22q0 -154 -51 -290t-139 -233.5t-211 -154t-262 -56.5zM750 53q166 0 299 86t206.5 235t73.5 333v24q0 183 -73 331t-205.5 233
t-298.5 85q-167 0 -300.5 -85.5t-207.5 -234.5t-74 -333v-25q0 -183 74 -331t207 -233t299 -85zM459 334v801h311q162 0 244 -82q69 -69 69 -187v-6q0 -163 -143 -233l164 -293h-232l-135 250h-71v-250h-207zM666 745h100q51 0 79.5 27.5t28.5 77.5v4q0 51 -29.5 76.5
t-80.5 25.5h-98v-211z" />
    <glyph glyph-name="NUL" horiz-adv-x="0" 
 />
    <glyph glyph-name="hfjslug" horiz-adv-x="1421" 
d="M1319 -410h-426l-16 29h-334l-17 -29h-424v621q28 0 47 18.5t19 46.5q0 27 -19.5 46.5t-46.5 19.5v1135h205l62 161h684l59 -161h207v-1887zM819 1153v-352h31v160h78v28h-78v135h88v29h-119zM377 1153v-352h31v162h96v-162h31v352h-31v-162h-96v162h-31zM942 807
q20 -8 43 -8q64 0 64 73v281h-33v-281q0 -45 -33 -45q-13 0 -41 11v-31zM760 952l-27 6q-9 -39 -16 -61h-2l-33 64q47 44 47 86q0 28 -14 45.5t-41 17.5q-26 0 -42 -18t-16 -45q0 -9 1 -16.5t4.5 -16.5t6 -13.5t9 -16.5t8.5 -17q-47 -38 -47 -97q0 -34 16.5 -54.5
t42.5 -20.5q41 0 60 49h2l24 -49l25 12l-35 65q16 40 27 80zM1071 662v-95h16v25l17 16l31 -41h20l-41 54l37 41h-21l-40 -50h-3v50h-16zM999 598l21 -31h18l-24 35q20 8 20 29q0 13 -10 22t-25 9h-41v-95h17v31h24zM872 565q22 0 36 14.5t14 34.5q0 19 -14.5 34.5
t-35.5 15.5t-35 -15t-14 -35q0 -21 14 -35t35 -14zM758 616l-27 46h-18l37 -60v-35h16v35l37 60h-19zM395 662v-95h70v15h-53v26h47v15h-47v24h53v15h-70zM270 662v-95h17v66l51 -66h14v95h-16v-66l-51 66h-15zM494 662l28 -97h17l22 70h2l23 -70h16l29 97h-17l-20 -72h-2
l-23 72h-14l-23 -72h-2l-20 72h-16zM670 981q-25 48 -25 66q0 17 8.5 27.5t20.5 10.5q26 0 26 -38q0 -31 -30 -66zM700 866q-16 -43 -41 -43q-14 0 -23 14t-9 37q0 40 32 72zM997 612h-22v35h22q21 0 21 -16q0 -8 -6 -13.5t-15 -5.5zM872 580q-14 0 -23 10t-9 24q0 13 9 24
t23 11t23.5 -11t9.5 -24q0 -14 -9 -24t-24 -10z" />
    <glyph glyph-name="i.dot" horiz-adv-x="550" 
d="M90 1202v281h371v-281h-371zM96 0v1108h359v-1108h-359z" />
    <glyph glyph-name="caron.alt" 
d="M385 1184l23 397h237v-6l-117 -391h-143z" />
    <glyph glyph-name="acute.cap" 
d="M272 1518l201 305l340 -105l-274 -200h-267z" />
    <glyph glyph-name="hungarumlaut.cap" 
d="M469 1518l115 182l-238 -182h-240l193 305l299 -99l64 99l311 -103l-264 -202h-240z" />
    <glyph glyph-name="grave.cap" 
d="M750 1518h-265l-276 200l342 105z" />
    <glyph glyph-name="circumflex.cap" 
d="M135 1518l221 282h312l221 -282h-242l-137 102l-137 -102h-238z" />
    <glyph glyph-name="caron.cap" 
d="M889 1800l-221 -282h-312l-221 282h242l137 -102l137 102h238z" />
    <glyph glyph-name="breve.cap" 
d="M512 1513q-154 0 -247.5 72t-108.5 211h213q31 -86 143 -86t143 86h211q-13 -138 -106.5 -210.5t-247.5 -72.5z" />
    <glyph glyph-name="tilde.cap" 
d="M684 1518q-57 0 -182 41q-94 34 -123 34q-33 0 -52 -20t-38 -68l-174 43q27 145 80 214t145 69q55 0 184 -41q87 -33 119 -33q35 0 54.5 20t37.5 68l174 -45q-27 -145 -80 -213.5t-145 -68.5z" />
    <glyph glyph-name="macron.cap" 
d="M147 1530v225h730v-225h-730z" />
    <glyph glyph-name="dieresis.cap" 
d="M563 1520v264h305v-264h-305zM156 1520v264h305v-264h-305z" />
    <glyph glyph-name="dotaccent.cap" 
d="M354 1520v264h316v-264h-316z" />
    <glyph glyph-name="ring.cap" 
d="M512 1518q-110 0 -185 67t-75 168q0 100 75 167t185 67t185 -67t75 -167q0 -101 -75 -168t-185 -67zM512 1634q58 0 93.5 33.5t35.5 85.5q0 51 -36 85t-93 34t-93 -34t-36 -85q0 -52 35.5 -85.5t93.5 -33.5z" />
    </font>
</defs>
</svg>
